  0
SECTION
  2
HEADER
  9
$ACADVER
  1
AC1015
  9
$ACADMAINTVER
 70
    18
  9
$DWGCODEPAGE
  3
ANSI_1252
  9
$INSBASE
 10
0.0
 20
0.0
 30
0.0
  9
$EXTMIN
 10
0.0
 20
0.0
 30
0.0
  9
$EXTMAX
 10
594.0
 20
420.0
 30
0.0
  9
$LIMMIN
 10
0.0
 20
0.0
  9
$LIMMAX
 10
594.0
 20
420.0
  9
$ORTHOMODE
 70
     0
  9
$REGENMODE
 70
     1
  9
$FILLMODE
 70
     1
  9
$QTEXTMODE
 70
     0
  9
$MIRRTEXT
 70
     0
  9
$LTSCALE
 40
2.0
  9
$ATTMODE
 70
     1
  9
$TEXTSIZE
 40
0.2
  9
$TRACEWID
 40
0.05
  9
$TEXTSTYLE
  7
Standard
  9
$CLAYER
  8
0
  9
$CELTYPE
  6
ByLayer
  9
$CECOLOR
 62
   256
  9
$CELTSCALE
 40
1.0
  9
$DISPSILH
 70
     0
  9
$DIMSCALE
 40
1.0
  9
$DIMASZ
 40
1.799999999999999
  9
$DIMEXO
 40
0.0625
  9
$DIMDLI
 40
0.38
  9
$DIMRND
 40
0.0
  9
$DIMDLE
 40
0.0
  9
$DIMEXE
 40
0.18
  9
$DIMTP
 40
0.0
  9
$DIMTM
 40
0.0
  9
$DIMTXT
 40
0.3499999940395355
  9
$DIMCEN
 40
0.09
  9
$DIMTSZ
 40
0.0
  9
$DIMTOL
 70
     0
  9
$DIMLIM
 70
     0
  9
$DIMTIH
 70
     1
  9
$DIMTOH
 70
     1
  9
$DIMSE1
 70
     0
  9
$DIMSE2
 70
     0
  9
$DIMTAD
 70
     0
  9
$DIMZIN
 70
     0
  9
$DIMBLK
  1

  9
$DIMASO
 70
     1
  9
$DIMSHO
 70
     1
  9
$DIMPOST
  1

  9
$DIMAPOST
  1

  9
$DIMALT
 70
     0
  9
$DIMALTD
 70
     2
  9
$DIMALTF
 40
25.4
  9
$DIMLFAC
 40
1.0
  9
$DIMTOFL
 70
     0
  9
$DIMTVP
 40
0.0
  9
$DIMTIX
 70
     0
  9
$DIMSOXD
 70
     0
  9
$DIMSAH
 70
     0
  9
$DIMBLK1
  1

  9
$DIMBLK2
  1

  9
$DIMSTYLE
  2
Standard
  9
$DIMCLRD
 70
     0
  9
$DIMCLRE
 70
     0
  9
$DIMCLRT
 70
     0
  9
$DIMTFAC
 40
1.0
  9
$DIMGAP
 40
0.09
  9
$DIMJUST
 70
     0
  9
$DIMSD1
 70
     0
  9
$DIMSD2
 70
     0
  9
$DIMTOLJ
 70
     1
  9
$DIMTZIN
 70
     0
  9
$DIMALTZ
 70
     0
  9
$DIMALTTZ
 70
     0
  9
$DIMUPT
 70
     0
  9
$DIMDEC
 70
     4
  9
$DIMTDEC
 70
     4
  9
$DIMALTU
 70
     2
  9
$DIMALTTD
 70
     2
  9
$DIMTXSTY
  7
Standard
  9
$DIMAUNIT
 70
     0
  9
$DIMADEC
 70
     0
  9
$DIMALTRND
 40
0.0
  9
$DIMAZIN
 70
     0
  9
$DIMDSEP
 70
    46
  9
$DIMATFIT
 70
     3
  9
$DIMFRAC
 70
     0
  9
$DIMLDRBLK
  1

  9
$DIMLUNIT
 70
     2
  9
$DIMLWD
 70
    -2
  9
$DIMLWE
 70
    -2
  9
$DIMTMOVE
 70
     0
  9
$LUNITS
 70
     2
  9
$LUPREC
 70
     4
  9
$SKETCHINC
 40
0.1
  9
$FILLETRAD
 40
0.0
  9
$AUNITS
 70
     0
  9
$AUPREC
 70
     0
  9
$MENU
  1
.
  9
$ELEVATION
 40
0.0
  9
$PELEVATION
 40
0.0
  9
$THICKNESS
 40
0.0
  9
$LIMCHECK
 70
     0
  9
$CHAMFERA
 40
0.0
  9
$CHAMFERB
 40
0.0
  9
$CHAMFERC
 40
0.0
  9
$CHAMFERD
 40
0.0
  9
$SKPOLY
 70
     0
  9
$TDCREATE
 40
2454105.773206598
  9
$TDUCREATE
 40
2454105.731539931
  9
$TDUPDATE
 40
2454105.773206598
  9
$TDUUPDATE
 40
2454105.731539931
  9
$TDINDWG
 40
0.0000726852
  9
$TDUSRTIMER
 40
0.0000726852
  9
$USRTIMER
 70
     1
  9
$ANGBASE
 50
0.0
  9
$ANGDIR
 70
     0
  9
$PDMODE
 70
     0
  9
$PDSIZE
 40
0.0
  9
$PLINEWID
 40
0.0
  9
$SPLFRAME
 70
     0
  9
$SPLINETYPE
 70
     6
  9
$SPLINESEGS
 70
     8
  9
$HANDSEED
  5
ED8
  9
$SURFTAB1
 70
     6
  9
$SURFTAB2
 70
     6
  9
$SURFTYPE
 70
     6
  9
$SURFU
 70
     6
  9
$SURFV
 70
     6
  9
$UCSBASE
  2

  9
$UCSNAME
  2

  9
$UCSORG
 10
0.0
 20
0.0
 30
0.0
  9
$UCSXDIR
 10
1.0
 20
0.0
 30
0.0
  9
$UCSYDIR
 10
0.0
 20
1.0
 30
0.0
  9
$UCSORTHOREF
  2

  9
$UCSORTHOVIEW
 70
     0
  9
$UCSORGTOP
 10
0.0
 20
0.0
 30
0.0
  9
$UCSORGBOTTOM
 10
0.0
 20
0.0
 30
0.0
  9
$UCSORGLEFT
 10
0.0
 20
0.0
 30
0.0
  9
$UCSORGRIGHT
 10
0.0
 20
0.0
 30
0.0
  9
$UCSORGFRONT
 10
0.0
 20
0.0
 30
0.0
  9
$UCSORGBACK
 10
0.0
 20
0.0
 30
0.0
  9
$PUCSBASE
  2

  9
$PUCSNAME
  2

  9
$PUCSORG
 10
0.0
 20
0.0
 30
0.0
  9
$PUCSXDIR
 10
1.0
 20
0.0
 30
0.0
  9
$PUCSYDIR
 10
0.0
 20
1.0
 30
0.0
  9
$PUCSORTHOREF
  2

  9
$PUCSORTHOVIEW
 70
     0
  9
$PUCSORGTOP
 10
0.0
 20
0.0
 30
0.0
  9
$PUCSORGBOTTOM
 10
0.0
 20
0.0
 30
0.0
  9
$PUCSORGLEFT
 10
0.0
 20
0.0
 30
0.0
  9
$PUCSORGRIGHT
 10
0.0
 20
0.0
 30
0.0
  9
$PUCSORGFRONT
 10
0.0
 20
0.0
 30
0.0
  9
$PUCSORGBACK
 10
0.0
 20
0.0
 30
0.0
  9
$USERI1
 70
     0
  9
$USERI2
 70
     0
  9
$USERI3
 70
     0
  9
$USERI4
 70
     0
  9
$USERI5
 70
     0
  9
$USERR1
 40
0.0
  9
$USERR2
 40
0.0
  9
$USERR3
 40
0.0
  9
$USERR4
 40
0.0
  9
$USERR5
 40
0.0
  9
$WORLDVIEW
 70
     1
  9
$SHADEDGE
 70
     3
  9
$SHADEDIF
 70
    70
  9
$TILEMODE
 70
     1
  9
$MAXACTVP
 70
    64
  9
$PINSBASE
 10
0.0
 20
0.0
 30
0.0
  9
$PLIMCHECK
 70
     0
  9
$PEXTMIN
 10
0.0
 20
0.0
 30
0.0
  9
$PEXTMAX
 10
594.0
 20
420.0
 30
0.0
  9
$PLIMMIN
 10
0.0
 20
0.0
  9
$PLIMMAX
 10
594.0
 20
420.0
  9
$UNITMODE
 70
     0
  9
$VISRETAIN
 70
     1
  9
$PLINEGEN
 70
     0
  9
$PSLTSCALE
 70
     1
  9
$TREEDEPTH
 70
  3020
  9
$CMLSTYLE
  2
Standard
  9
$CMLJUST
 70
     0
  9
$CMLSCALE
 40
1.0
  9
$PROXYGRAPHICS
 70
     1
  9
$MEASUREMENT
 70
     1
  9
$CELWEIGHT
370
    -1
  9
$ENDCAPS
280
     0
  9
$JOINSTYLE
280
     0
  9
$LWDISPLAY
290
     0
  9
$INSUNITS
 70
     0
  9
$HYPERLINKBASE
  1

  9
$STYLESHEET
  1

  9
$XEDIT
290
     1
  9
$CEPSNTYPE
380
     0
  9
$PSTYLEMODE
290
     1
  9
$FINGERPRINTGUID
  2
{1E10754B-8322-4D26-841D-BEFDC05C38AB}
  9
$VERSIONGUID
  2
{B0B074F9-101B-49FE-9466-F32D06168DC1}
  9
$EXTNAMES
290
     1
  9
$PSVPSCALE
 40
0.0
  9
$OLESTARTUP
290
     0
  0
ENDSEC
  0
SECTION
  2
CLASSES
  0
CLASS
  1
ACDBDICTIONARYWDFLT
  2
AcDbDictionaryWithDefault
  3
ObjectDBX Classes
 90
        0
280
     0
281
     0
  0
CLASS
  1
MATERIAL
  2
AcDbMaterial
  3
ObjectDBX Classes
 90
     1024
280
     0
281
     0
  0
CLASS
  1
VISUALSTYLE
  2
AcDbVisualStyle
  3
ObjectDBX Classes
 90
     4095
280
     0
281
     0
  0
CLASS
  1
TABLESTYLE
  2
AcDbTableStyle
  3
ObjectDBX Classes
 90
     4095
280
     0
281
     0
  0
CLASS
  1
DICTIONARYVAR
  2
AcDbDictionaryVar
  3
ObjectDBX Classes
 90
        0
280
     0
281
     0
  0
CLASS
  1
ACDBPLACEHOLDER
  2
AcDbPlaceHolder
  3
ObjectDBX Classes
 90
        0
280
     0
281
     0
  0
CLASS
  1
LAYOUT
  2
AcDbLayout
  3
ObjectDBX Classes
 90
        0
280
     0
281
     0
  0
ENDSEC
  0
SECTION
  2
TABLES
  0
TABLE
  2
VPORT
  5
8
330
0
100
AcDbSymbolTable
 70
     1
  0
VPORT
  5
28
330
8
100
AcDbSymbolTableRecord
100
AcDbViewportTableRecord
  2
*Active
 70
     0
 10
0.0
 20
0.0
 11
1.0
 21
1.0
 12
297.0
 22
210.0
 13
0.0
 23
0.0
 14
1.0
 24
1.0
 15
0.0
 25
0.0
 16
0.0
 26
0.0
 36
1.0
 17
0.0
 27
0.0
 37
0.0
 40
420.0
 41
1.414285714285714
 42
50.0
 43
0.0
 44
0.0
 50
0.0
 51
0.0
 71
     0
 72
   100
 73
     1
 74
     1
 75
     0
 76
     0
 77
     0
 78
     0
281
     0
 65
     1
110
0.0
120
0.0
130
0.0
111
1.0
121
0.0
131
0.0
112
0.0
122
1.0
132
0.0
 79
     0
146
0.0
  0
ENDTAB
  0
TABLE
  2
LTYPE
  5
5
330
0
100
AcDbSymbolTable
 70
    59
  0
LTYPE
  5
29
330
5
100
AcDbSymbolTableRecord
100
AcDbLinetypeTableRecord
  2
ByBlock
 70
     0
  3

 72
    65
 73
     0
 40
0.0
  0
LTYPE
  5
2A
330
5
100
AcDbSymbolTableRecord
100
AcDbLinetypeTableRecord
  2
ByLayer
 70
     0
  3

 72
    65
 73
     0
 40
0.0
  0
LTYPE
  5
2B
330
5
100
AcDbSymbolTableRecord
100
AcDbLinetypeTableRecord
  2
Continuous
 70
     0
  3
Solid line
 72
    65
 73
     0
 40
0.0
  0
LTYPE
  5
40
330
5
100
AcDbSymbolTableRecord
100
AcDbLinetypeTableRecord
  2
Section_View_Lines
 70
     0
  3
Section View Lines
 72
    65
 73
     4
 40
0.8406
 49
0.6614
 74
     0
 49
-0.0827
 74
     0
 49
0.0138
 74
     0
 49
-0.0827
 74
     0
  0
LTYPE
  5
41
330
5
100
AcDbSymbolTableRecord
100
AcDbLinetypeTableRecord
  2
CHAIN
 70
     0
  3
Chain ____ _ ____ _ ____ _ ____ _ ____ _ ____
 72
    65
 73
     4
 40
0.3543
 49
0.2362
 74
     0
 49
-0.0295
 74
     0
 49
0.0591
 74
     0
 49
-0.0295
 74
     0
  0
LTYPE
  5
42
330
5
100
AcDbSymbolTableRecord
100
AcDbLinetypeTableRecord
  2
DASH_DOT
 70
     0
  3
Dash dot _._._._._._._._._._._._._._._.
 72
    65
 73
     4
 40
0.37
 49
0.24
 74
     0
 49
-0.06
 74
     0
 49
0.01
 74
     0
 49
-0.06
 74
     0
  0
LTYPE
  5
43
330
5
100
AcDbSymbolTableRecord
100
AcDbLinetypeTableRecord
  2
DASH_DOUBLE_DOT
 70
     0
  3
Dash Double Dot __ __ . __ __ . __ __ . __ _
 72
    65
 73
     6
 40
0.4398
 49
0.24
 74
     0
 49
-0.06
 74
     0
 49
0.0098
 74
     0
 49
-0.06
 74
     0
 49
0.01
 74
     0
 49
-0.06
 74
     0
  0
LTYPE
  5
44
330
5
100
AcDbSymbolTableRecord
100
AcDbLinetypeTableRecord
  2
DASH_TRIPLE_DOT
 70
     0
  3
Dash Triple-Dot _ . . . _ . . . _ . . . _
 72
    65
 73
     8
 40
0.51
 49
0.24
 74
     0
 49
-0.06
 74
     0
 49
0.01
 74
     0
 49
-0.06
 74
     0
 49
0.01
 74
     0
 49
-0.06
 74
     0
 49
0.01
 74
     0
 49
-0.06
 74
     0
  0
LTYPE
  5
45
330
5
100
AcDbSymbolTableRecord
100
AcDbLinetypeTableRecord
  2
DASHED
 70
     0
  3
Dashed __ __ __ __ __ __ __ __ __ __ __ __ __ _
 72
    65
 73
     2
 40
0.2067
 49
0.1654
 74
     0
 49
-0.0413
 74
     0
  0
LTYPE
  5
46
330
5
100
AcDbSymbolTableRecord
100
AcDbLinetypeTableRecord
  2
DASHED_SPACE
 70
     0
  3
Dashed Space _._._._._._._._._._._._._._._.
 72
    65
 73
     2
 40
0.2067
 49
0.1654
 74
     0
 49
-0.0413
 74
     0
  0
LTYPE
  5
47
330
5
100
AcDbSymbolTableRecord
100
AcDbLinetypeTableRecord
  2
DOTTED
 70
     0
  3
Dotted . . . . . . . . . . . . . . . . . . . . 
 72
    65
 73
     2
 40
0.0482
 49
0.0069
 74
     0
 49
-0.0413
 74
     0
  0
LTYPE
  5
48
330
5
100
AcDbSymbolTableRecord
100
AcDbLinetypeTableRecord
  2
DOUBLE_DASH_CHAIN
 70
     0
  3
Double Dash Chain ___ _ _ ___ _ _ ___ _ _ ___ _
 72
    65
 73
     6
 40
1.240299999999999
 49
0.6614
 74
     0
 49
-0.0827
 74
     0
 49
0.1654
 74
     0
 49
-0.0827
 74
     0
 49
0.1654
 74
     0
 49
-0.0827
 74
     0
  0
LTYPE
  5
49
330
5
100
AcDbSymbolTableRecord
100
AcDbLinetypeTableRecord
  2
DOUBLE_DASH_DOT
 70
     0
  3
Double Dash Dot __ __ . __ __ . __ __ . __ _
 72
    65
 73
     6
 40
0.67
 49
0.24
 74
     0
 49
-0.06
 74
     0
 49
0.24
 74
     0
 49
-0.06
 74
     0
 49
0.01
 74
     0
 49
-0.06
 74
     0
  0
LTYPE
  5
4A
330
5
100
AcDbSymbolTableRecord
100
AcDbLinetypeTableRecord
  2
DOUBLE_DASH_DOUBLE_DOT
 70
     0
  3
Double-dash double-dot _ _ . . _ _ . . _
 72
    65
 73
     8
 40
0.7400000000000001
 49
0.24
 74
     0
 49
-0.06
 74
     0
 49
0.24
 74
     0
 49
-0.06
 74
     0
 49
0.01
 74
     0
 49
-0.06
 74
     0
 49
0.01
 74
     0
 49
-0.06
 74
     0
  0
LTYPE
  5
4B
330
5
100
AcDbSymbolTableRecord
100
AcDbLinetypeTableRecord
  2
DOUBLE_DASH_TRIPLE_DOT
 70
     0
  3
Double Dash Triple Dot __ __ . . . __ __ . . .
 72
    65
 73
    10
 40
0.8100000000000001
 49
0.24
 74
     0
 49
-0.06
 74
     0
 49
0.24
 74
     0
 49
-0.06
 74
     0
 49
0.01
 74
     0
 49
-0.06
 74
     0
 49
0.01
 74
     0
 49
-0.06
 74
     0
 49
0.01
 74
     0
 49
-0.06
 74
     0
  0
LTYPE
  5
4C
330
5
100
AcDbSymbolTableRecord
100
AcDbLinetypeTableRecord
  2
LONG_DASH_DOTTED
 70
     0
  3
Long-Dash Dot ____ . ____ . ____ . ____ . _
 72
    65
 73
     4
 40
0.3001
 49
0.2362
 74
     0
 49
-0.0295
 74
     0
 49
0.0049
 74
     0
 49
-0.0295
 74
     0
  0
LTYPE
  5
4D
330
5
100
AcDbSymbolTableRecord
100
AcDbLinetypeTableRecord
  2
LONG_DASH_DOUBLE_DOT
 70
     0
  3
Long Dash Double Dot ____ . . ____ . . ____ . .
 72
    65
 73
     6
 40
0.3345
 49
0.2362
 74
     0
 49
-0.0295
 74
     0
 49
0.0049
 74
     0
 49
-0.0295
 74
     0
 49
0.0049
 74
     0
 49
-0.0295
 74
     0
  0
LTYPE
  5
4E
330
5
100
AcDbSymbolTableRecord
100
AcDbLinetypeTableRecord
  2
LONG_DASH_TRIPLE_DOT
 70
     0
  3
Long Dash Triple Dot ____ ... ____ ... ____
 72
    65
 73
     8
 40
0.75
 49
0.48
 74
     0
 49
-0.06
 74
     0
 49
0.01
 74
     0
 49
-0.06
 74
     0
 49
0.01
 74
     0
 49
-0.06
 74
     0
 49
0.01
 74
     0
 49
-0.06
 74
     0
  0
LTYPE
  5
4F
330
5
100
AcDbSymbolTableRecord
100
AcDbLinetypeTableRecord
  2
BORDER
 70
     0
  3
Border __ __ . __ __ . __ __ . __ __ . __ __ .
 72
    65
 73
     6
 40
44.45
 49
12.7
 74
     0
 49
-6.349999999999999
 74
     0
 49
12.7
 74
     0
 49
-6.349999999999999
 74
     0
 49
0.0
 74
     0
 49
-6.349999999999999
 74
     0
  0
LTYPE
  5
50
330
5
100
AcDbSymbolTableRecord
100
AcDbLinetypeTableRecord
  2
BORDER2
 70
     0
  3
Border (.5x) __.__.__.__.__.__.__.__.__.__.__.
 72
    65
 73
     6
 40
22.225
 49
6.349999999999999
 74
     0
 49
-3.174999999999999
 74
     0
 49
6.349999999999999
 74
     0
 49
-3.174999999999999
 74
     0
 49
0.0
 74
     0
 49
-3.174999999999999
 74
     0
  0
LTYPE
  5
51
330
5
100
AcDbSymbolTableRecord
100
AcDbLinetypeTableRecord
  2
BORDERX2
 70
     0
  3
Border (2x) ____  ____  .  ____  ____  .  ___
 72
    65
 73
     6
 40
88.9
 49
25.4
 74
     0
 49
-12.7
 74
     0
 49
25.4
 74
     0
 49
-12.7
 74
     0
 49
0.0
 74
     0
 49
-12.7
 74
     0
  0
LTYPE
  5
52
330
5
100
AcDbSymbolTableRecord
100
AcDbLinetypeTableRecord
  2
CENTER
 70
     0
  3
Center ____ _ ____ _ ____ _ ____ _ ____ _ ____
 72
    65
 73
     4
 40
50.8
 49
31.75
 74
     0
 49
-6.349999999999999
 74
     0
 49
6.349999999999999
 74
     0
 49
-6.349999999999999
 74
     0
  0
LTYPE
  5
53
330
5
100
AcDbSymbolTableRecord
100
AcDbLinetypeTableRecord
  2
CENTER2
 70
     0
  3
Center (.5x) ___ _ ___ _ ___ _ ___ _ ___ _ ___
 72
    65
 73
     4
 40
28.575
 49
19.05
 74
     0
 49
-3.174999999999999
 74
     0
 49
3.174999999999999
 74
     0
 49
-3.174999999999999
 74
     0
  0
LTYPE
  5
54
330
5
100
AcDbSymbolTableRecord
100
AcDbLinetypeTableRecord
  2
CENTERX2
 70
     0
  3
Center (2x) ________  __  ________  __  _____
 72
    65
 73
     4
 40
101.6
 49
63.5
 74
     0
 49
-12.7
 74
     0
 49
12.7
 74
     0
 49
-12.7
 74
     0
  0
LTYPE
  5
55
330
5
100
AcDbSymbolTableRecord
100
AcDbLinetypeTableRecord
  2
DASHDOT2
 70
     0
  3
Dash dot (.5x) _._._._._._._._._._._._._._._.
 72
    65
 73
     4
 40
12.7
 49
6.349999999999999
 74
     0
 49
-3.174999999999999
 74
     0
 49
0.0
 74
     0
 49
-3.174999999999999
 74
     0
  0
LTYPE
  5
56
330
5
100
AcDbSymbolTableRecord
100
AcDbLinetypeTableRecord
  2
DASHDOTX2
 70
     0
  3
Dash dot (2x) ____  .  ____  .  ____  .  ___
 72
    65
 73
     4
 40
50.8
 49
25.4
 74
     0
 49
-12.7
 74
     0
 49
0.0
 74
     0
 49
-12.7
 74
     0
  0
LTYPE
  5
57
330
5
100
AcDbSymbolTableRecord
100
AcDbLinetypeTableRecord
  2
DASHED2
 70
     0
  3
Dashed (.5x) _ _ _ _ _ _ _ _ _ _ _ _ _ _ _ _ _
 72
    65
 73
     2
 40
9.524999999999998
 49
6.349999999999999
 74
     0
 49
-3.174999999999999
 74
     0
  0
LTYPE
  5
58
330
5
100
AcDbSymbolTableRecord
100
AcDbLinetypeTableRecord
  2
DASHEDX2
 70
     0
  3
Dashed (2x) ____  ____  ____  ____  ____  ___
 72
    65
 73
     2
 40
38.1
 49
25.4
 74
     0
 49
-12.7
 74
     0
  0
LTYPE
  5
59
330
5
100
AcDbSymbolTableRecord
100
AcDbLinetypeTableRecord
  2
DIVIDE
 70
     0
  3
Divide ____ . . ____ . . ____ . . ____ . . ____
 72
    65
 73
     6
 40
31.75
 49
12.7
 74
     0
 49
-6.349999999999999
 74
     0
 49
0.0
 74
     0
 49
-6.349999999999999
 74
     0
 49
0.0
 74
     0
 49
-6.349999999999999
 74
     0
  0
LTYPE
  5
5A
330
5
100
AcDbSymbolTableRecord
100
AcDbLinetypeTableRecord
  2
DIVIDE2
 70
     0
  3
Divide (.5x) __..__..__..__..__..__..__..__.._
 72
    65
 73
     6
 40
15.875
 49
6.349999999999999
 74
     0
 49
-3.174999999999999
 74
     0
 49
0.0
 74
     0
 49
-3.174999999999999
 74
     0
 49
0.0
 74
     0
 49
-3.174999999999999
 74
     0
  0
LTYPE
  5
5B
330
5
100
AcDbSymbolTableRecord
100
AcDbLinetypeTableRecord
  2
DIVIDEX2
 70
     0
  3
Divide (2x) ________  .  .  ________  .  .  _
 72
    65
 73
     6
 40
63.49999999999999
 49
25.4
 74
     0
 49
-12.7
 74
     0
 49
0.0
 74
     0
 49
-12.7
 74
     0
 49
0.0
 74
     0
 49
-12.7
 74
     0
  0
LTYPE
  5
5C
330
5
100
AcDbSymbolTableRecord
100
AcDbLinetypeTableRecord
  2
DOT
 70
     0
  3
Dot . . . . . . . . . . . . . . . . . . . . . .
 72
    65
 73
     2
 40
6.349999999999999
 49
0.0
 74
     0
 49
-6.349999999999999
 74
     0
  0
LTYPE
  5
5D
330
5
100
AcDbSymbolTableRecord
100
AcDbLinetypeTableRecord
  2
DOT2
 70
     0
  3
Dot (.5x) .....................................
 72
    65
 73
     2
 40
3.174999999999999
 49
0.0
 74
     0
 49
-3.174999999999999
 74
     0
  0
LTYPE
  5
5E
330
5
100
AcDbSymbolTableRecord
100
AcDbLinetypeTableRecord
  2
DOTX2
 70
     0
  3
Dot (2x) .  .  .  .  .  .  .  .  .  .  .  .  . 
 72
    65
 73
     2
 40
12.7
 49
0.0
 74
     0
 49
-12.7
 74
     0
  0
LTYPE
  5
5F
330
5
100
AcDbSymbolTableRecord
100
AcDbLinetypeTableRecord
  2
HIDDEN
 70
     0
  3
Hidden __ __ __ __ __ __ __ __ __ __ __ __ __ _
 72
    65
 73
     2
 40
9.524999999999998
 49
6.349999999999999
 74
     0
 49
-3.174999999999999
 74
     0
  0
LTYPE
  5
60
330
5
100
AcDbSymbolTableRecord
100
AcDbLinetypeTableRecord
  2
HIDDEN2
 70
     0
  3
Hidden (.5x) _ _ _ _ _ _ _ _ _ _ _ _ _ _ _ _ _
 72
    65
 73
     2
 40
4.762499999999999
 49
3.174999999999999
 74
     0
 49
-1.587499999999999
 74
     0
  0
LTYPE
  5
61
330
5
100
AcDbSymbolTableRecord
100
AcDbLinetypeTableRecord
  2
HIDDENX2
 70
     0
  3
Hidden (2x) ____ ____ ____ ____ ____ ____ ____
 72
    65
 73
     2
 40
19.05
 49
12.7
 74
     0
 49
-6.349999999999999
 74
     0
  0
LTYPE
  5
62
330
5
100
AcDbSymbolTableRecord
100
AcDbLinetypeTableRecord
  2
PHANTOM
 70
     0
  3
Phantom ______  __  __  ______  __  __  ______
 72
    65
 73
     6
 40
63.5
 49
31.75
 74
     0
 49
-6.349999999999999
 74
     0
 49
6.349999999999999
 74
     0
 49
-6.349999999999999
 74
     0
 49
6.349999999999999
 74
     0
 49
-6.349999999999999
 74
     0
  0
LTYPE
  5
63
330
5
100
AcDbSymbolTableRecord
100
AcDbLinetypeTableRecord
  2
PHANTOM2
 70
     0
  3
Phantom (.5x) ___ _ _ ___ _ _ ___ _ _ ___ _ _
 72
    65
 73
     6
 40
31.75
 49
15.875
 74
     0
 49
-3.174999999999999
 74
     0
 49
3.174999999999999
 74
     0
 49
-3.174999999999999
 74
     0
 49
3.174999999999999
 74
     0
 49
-3.174999999999999
 74
     0
  0
LTYPE
  5
64
330
5
100
AcDbSymbolTableRecord
100
AcDbLinetypeTableRecord
  2
PHANTOMX2
 70
     0
  3
Phantom (2x) ____________    ____    ____   _
 72
    65
 73
     6
 40
127.0
 49
63.5
 74
     0
 49
-12.7
 74
     0
 49
12.7
 74
     0
 49
-12.7
 74
     0
 49
12.7
 74
     0
 49
-12.7
 74
     0
  0
LTYPE
  5
65
330
5
100
AcDbSymbolTableRecord
100
AcDbLinetypeTableRecord
  2
ACAD_ISO02W100
 70
     0
  3
ISO dash __ __ __ __ __ __ __ __ __ __ __ __ __
 72
    65
 73
     2
 40
15.0
 49
12.0
 74
     0
 49
-3.0
 74
     0
  0
LTYPE
  5
66
330
5
100
AcDbSymbolTableRecord
100
AcDbLinetypeTableRecord
  2
ACAD_ISO03W100
 70
     0
  3
ISO dash space __    __    __    __    __    __
 72
    65
 73
     2
 40
30.0
 49
12.0
 74
     0
 49
-18.0
 74
     0
  0
LTYPE
  5
67
330
5
100
AcDbSymbolTableRecord
100
AcDbLinetypeTableRecord
  2
ACAD_ISO04W100
 70
     0
  3
ISO long-dash dot ____ . ____ . ____ . ____ . _
 72
    65
 73
     4
 40
30.0
 49
24.0
 74
     0
 49
-3.0
 74
     0
 49
0.0
 74
     0
 49
-3.0
 74
     0
  0
LTYPE
  5
68
330
5
100
AcDbSymbolTableRecord
100
AcDbLinetypeTableRecord
  2
ACAD_ISO05W100
 70
     0
  3
ISO long-dash double-dot ____ .. ____ .. ____ .
 72
    65
 73
     6
 40
33.0
 49
24.0
 74
     0
 49
-3.0
 74
     0
 49
0.0
 74
     0
 49
-3.0
 74
     0
 49
0.0
 74
     0
 49
-3.0
 74
     0
  0
LTYPE
  5
69
330
5
100
AcDbSymbolTableRecord
100
AcDbLinetypeTableRecord
  2
ACAD_ISO06W100
 70
     0
  3
ISO long-dash triple-dot ____ ... ____ ... ____
 72
    65
 73
     8
 40
36.0
 49
24.0
 74
     0
 49
-3.0
 74
     0
 49
0.0
 74
     0
 49
-3.0
 74
     0
 49
0.0
 74
     0
 49
-3.0
 74
     0
 49
0.0
 74
     0
 49
-3.0
 74
     0
  0
LTYPE
  5
6A
330
5
100
AcDbSymbolTableRecord
100
AcDbLinetypeTableRecord
  2
ACAD_ISO07W100
 70
     0
  3
ISO dot . . . . . . . . . . . . . . . . . . . .
 72
    65
 73
     2
 40
3.0
 49
0.0
 74
     0
 49
-3.0
 74
     0
  0
LTYPE
  5
6B
330
5
100
AcDbSymbolTableRecord
100
AcDbLinetypeTableRecord
  2
ACAD_ISO08W100
 70
     0
  3
ISO long-dash short-dash ____ __ ____ __ ____ _
 72
    65
 73
     4
 40
36.0
 49
24.0
 74
     0
 49
-3.0
 74
     0
 49
6.0
 74
     0
 49
-3.0
 74
     0
  0
LTYPE
  5
6C
330
5
100
AcDbSymbolTableRecord
100
AcDbLinetypeTableRecord
  2
ACAD_ISO09W100
 70
     0
  3
ISO long-dash double-short-dash ____ __ __ ____
 72
    65
 73
     6
 40
45.0
 49
24.0
 74
     0
 49
-3.0
 74
     0
 49
6.0
 74
     0
 49
-3.0
 74
     0
 49
6.0
 74
     0
 49
-3.0
 74
     0
  0
LTYPE
  5
6D
330
5
100
AcDbSymbolTableRecord
100
AcDbLinetypeTableRecord
  2
ACAD_ISO10W100
 70
     0
  3
ISO dash dot __ . __ . __ . __ . __ . __ . __ .
 72
    65
 73
     4
 40
18.0
 49
12.0
 74
     0
 49
-3.0
 74
     0
 49
0.0
 74
     0
 49
-3.0
 74
     0
  0
LTYPE
  5
6E
330
5
100
AcDbSymbolTableRecord
100
AcDbLinetypeTableRecord
  2
ACAD_ISO11W100
 70
     0
  3
ISO double-dash dot __ __ . __ __ . __ __ . __ 
 72
    65
 73
     6
 40
33.0
 49
12.0
 74
     0
 49
-3.0
 74
     0
 49
12.0
 74
     0
 49
-3.0
 74
     0
 49
0.0
 74
     0
 49
-3.0
 74
     0
  0
LTYPE
  5
6F
330
5
100
AcDbSymbolTableRecord
100
AcDbLinetypeTableRecord
  2
ACAD_ISO12W100
 70
     0
  3
ISO dash double-dot __ . . __ . . __ . . __ . .
 72
    65
 73
     6
 40
21.0
 49
12.0
 74
     0
 49
-3.0
 74
     0
 49
0.0
 74
     0
 49
-3.0
 74
     0
 49
0.0
 74
     0
 49
-3.0
 74
     0
  0
LTYPE
  5
70
330
5
100
AcDbSymbolTableRecord
100
AcDbLinetypeTableRecord
  2
ACAD_ISO13W100
 70
     0
  3
ISO double-dash double-dot __ __ . . __ __ . . 
 72
    65
 73
     8
 40
36.0
 49
12.0
 74
     0
 49
-3.0
 74
     0
 49
12.0
 74
     0
 49
-3.0
 74
     0
 49
0.0
 74
     0
 49
-3.0
 74
     0
 49
0.0
 74
     0
 49
-3.0
 74
     0
  0
LTYPE
  5
71
330
5
100
AcDbSymbolTableRecord
100
AcDbLinetypeTableRecord
  2
ACAD_ISO14W100
 70
     0
  3
ISO dash triple-dot __ . . . __ . . . __ . . . 
 72
    65
 73
     8
 40
24.0
 49
12.0
 74
     0
 49
-3.0
 74
     0
 49
0.0
 74
     0
 49
-3.0
 74
     0
 49
0.0
 74
     0
 49
-3.0
 74
     0
 49
0.0
 74
     0
 49
-3.0
 74
     0
  0
LTYPE
  5
72
330
5
100
AcDbSymbolTableRecord
100
AcDbLinetypeTableRecord
  2
ACAD_ISO15W100
 70
     0
  3
ISO double-dash triple-dot __ __ . . . __ __ . 
 72
    65
 73
    10
 40
39.0
 49
12.0
 74
     0
 49
-3.0
 74
     0
 49
12.0
 74
     0
 49
-3.0
 74
     0
 49
0.0
 74
     0
 49
-3.0
 74
     0
 49
0.0
 74
     0
 49
-3.0
 74
     0
 49
0.0
 74
     0
 49
-3.0
 74
     0
  0
LTYPE
  5
75
330
5
100
AcDbSymbolTableRecord
100
AcDbLinetypeTableRecord
  2
FENCELINE1
 70
     0
  3
Fenceline circle ----0-----0----0-----0----0---
 72
    65
 73
     4
 40
36.83
 49
6.349999999999999
 74
     0
 49
-2.54
 74
     4
 75
   133
340
74
 46
2.54
 50
0.0
 44
-2.54
 45
0.0
 49
-2.54
 74
     0
 49
25.4
 74
     0
  0
LTYPE
  5
76
330
5
100
AcDbSymbolTableRecord
100
AcDbLinetypeTableRecord
  2
FENCELINE2
 70
     0
  3
Fenceline square ----[]-----[]----[]-----[]----
 72
    65
 73
     4
 40
36.83
 49
6.349999999999999
 74
     0
 49
-2.54
 74
     4
 75
   132
340
74
 46
2.54
 50
0.0
 44
-2.54
 45
0.0
 49
-2.54
 74
     0
 49
25.4
 74
     0
  0
LTYPE
  5
77
330
5
100
AcDbSymbolTableRecord
100
AcDbLinetypeTableRecord
  2
TRACKS
 70
     0
  3
Tracks -|-|-|-|-|-|-|-|-|-|-|-|-|-|-|-|-|-|-|-|
 72
    65
 73
     2
 40
7.62
 49
3.81
 74
     4
 75
   130
340
74
 46
6.349999999999999
 50
0.0
 44
0.0
 45
0.0
 49
3.81
 74
     0
  0
LTYPE
  5
78
330
5
100
AcDbSymbolTableRecord
100
AcDbLinetypeTableRecord
  2
BATTING
 70
     0
  3
Batting SSSSSSSSSSSSSSSSSSSSSSSSSSSSSSSSSSSSSSS
 72
    65
 73
     4
 40
10.16254
 49
0.00254
 74
     0
 49
-2.54
 74
     4
 75
   134
340
74
 46
2.54
 50
0.0
 44
-2.54
 45
0.0
 49
-5.08
 74
     4
 75
   134
340
74
 46
2.54
 50
180.0
 44
2.54
 45
0.0
 49
-2.54
 74
     0
  0
LTYPE
  5
79
330
5
100
AcDbSymbolTableRecord
100
AcDbLinetypeTableRecord
  2
HOT_WATER_SUPPLY
 70
     0
  3
Hot water supply ---- HW ---- HW ---- HW ----
 72
    65
 73
     3
 40
22.86
 49
12.7
 74
     0
 49
-5.08
 74
     2
 75
     0
340
26
 46
2.54
 50
0.0
 44
-2.54
 45
-1.27
  9
HW
 49
-5.08
 74
     0
  0
LTYPE
  5
7A
330
5
100
AcDbSymbolTableRecord
100
AcDbLinetypeTableRecord
  2
GAS_LINE
 70
     0
  3
Gas line ----GAS----GAS----GAS----GAS----GAS---
 72
    65
 73
     3
 40
24.13
 49
12.7
 74
     0
 49
-5.08
 74
     2
 75
     0
340
26
 46
2.54
 50
0.0
 44
-2.54
 45
-1.27
  9
GAS
 49
-6.349999999999999
 74
     0
  0
LTYPE
  5
7B
330
5
100
AcDbSymbolTableRecord
100
AcDbLinetypeTableRecord
  2
ZIGZAG
 70
     0
  3
Zig zag /\/\/\/\/\/\/\/\/\/\/\/\/\/\/\/\/\/\/\/
 72
    65
 73
     4
 40
20.32254
 49
0.00254
 74
     0
 49
-5.08
 74
     4
 75
   131
340
74
 46
5.08
 50
0.0
 44
-5.08
 45
0.0
 49
-10.16
 74
     4
 75
   131
340
74
 46
5.08
 50
180.0
 44
5.08
 45
0.0
 49
-5.08
 74
     0
  0
ENDTAB
  0
TABLE
  2
LAYER
  5
2
330
0
100
AcDbSymbolTable
 70
    74
  0
LAYER
  5
25
330
2
100
AcDbSymbolTableRecord
100
AcDbLayerTableRecord
  2
0
 70
     0
 62
     7
  6
Continuous
370
    -3
390
F
  0
LAYER
  5
90
330
2
100
AcDbSymbolTableRecord
100
AcDbLayerTableRecord
  2
Bemaßungen(TC_020513_DIN)
 70
     0
 62
     7
  6
Continuous
370
    25
390
F
  0
LAYER
  5
9C
330
2
100
AcDbSymbolTableRecord
100
AcDbLayerTableRecord
  2
Gewinde(TC_020513_DIN)
 70
     0
 62
     7
  6
Continuous
370
    25
390
F
  0
LAYER
  5
A2
330
2
100
AcDbSymbolTableRecord
100
AcDbLayerTableRecord
  2
Mittellinie(TC_020513_DIN)
 70
     0
 62
     7
  6
DASH_DOT
370
    25
390
F
  0
LAYER
  5
A4
330
2
100
AcDbSymbolTableRecord
100
AcDbLayerTableRecord
  2
Mittelpunktmarkierung(TC_020513_DIN)
 70
     0
 62
     7
  6
Continuous
370
    25
390
F
  0
LAYER
  5
AD
330
2
100
AcDbSymbolTableRecord
100
AcDbLayerTableRecord
  2
Schraffur
 70
     0
 62
   179
  6
Continuous
370
     9
390
F
  0
LAYER
  5
AF
330
2
100
AcDbSymbolTableRecord
100
AcDbLayerTableRecord
  2
Sichtbare Kanten(TC_020513_DIN)
 70
     0
 62
     7
  6
Continuous
370
    50
390
F
  0
LAYER
  5
B2
330
2
100
AcDbSymbolTableRecord
100
AcDbLayerTableRecord
  2
Skizziergeometrie(ISO)
 70
     0
 62
     7
  6
Continuous
370
    50
390
F
  0
LAYER
  5
B5
330
2
100
AcDbSymbolTableRecord
100
AcDbLayerTableRecord
  2
Skizzierlinie(TC_020513_DIN)
 70
     1
 62
     3
  6
Continuous
370
    18
390
F
  0
LAYER
  5
B7
330
2
100
AcDbSymbolTableRecord
100
AcDbLayerTableRecord
  2
Stich 1-Linien(TC_020513_DIN)
 70
     0
 62
     7
  6
DASHED_SPACE
370
    25
390
F
  0
LAYER
  5
BA
330
2
100
AcDbSymbolTableRecord
100
AcDbLayerTableRecord
  2
Symbole(ISO)
 70
     0
 62
     7
  6
Continuous
370
    25
390
F
  0
LAYER
  5
BB
330
2
100
AcDbSymbolTableRecord
100
AcDbLayerTableRecord
  2
Symbole(TC_020513_DIN)
 70
     0
 62
     7
  6
Continuous
370
    35
390
F
  0
LAYER
  5
628
330
2
100
AcDbSymbolTableRecord
100
AcDbLayerTableRecord
  2
Defpoints
 70
     0
 62
     7
  6
Continuous
290
     0
370
    -3
390
F
  0
ENDTAB
  0
TABLE
  2
STYLE
  5
3
330
0
100
AcDbSymbolTable
 70
    17
  0
STYLE
  5
26
330
3
100
AcDbSymbolTableRecord
100
AcDbTextStyleTableRecord
  2
Standard
 70
     0
 40
0.0
 41
1.0
 50
0.0
 71
     0
 42
0.2
  3
ARIAL.TTF
  4

1001
ACAD
1000
Arial
1071
      256
  0
STYLE
  5
74
330
3
100
AcDbSymbolTableRecord
100
AcDbTextStyleTableRecord
  2

 70
     1
 40
0.0
 41
1.0
 50
0.0
 71
     0
 42
0.2
  3
ltypeshp.shx
  4

  0
STYLE
  5
C4
330
3
100
AcDbSymbolTableRecord
100
AcDbTextStyleTableRecord
  2
Aktuell-BSI
 70
     0
 40
0.0
 41
1.0
 50
0.0
 71
     0
 42
0.2
  3
ARIAL.TTF
  4

1001
ACAD
1000
Arial
1071
      256
  0
STYLE
  5
C5
330
3
100
AcDbSymbolTableRecord
100
AcDbTextStyleTableRecord
  2
Kopie von TC 5 mm
 70
     0
 40
0.0
 41
1.199999928474426
 50
0.0
 71
     0
 42
0.2
  3
ARIAL.TTF
  4

1001
ACAD
1000
Arial
1071
      256
  0
STYLE
  5
C6
330
3
100
AcDbSymbolTableRecord
100
AcDbTextStyleTableRecord
  2
STANDARD-TC_020513_DIN
 70
     0
 40
0.0
 41
1.0
 50
0.0
 71
     0
 42
0.2
  3
ARIAL.TTF
  4

1001
ACAD
1000
Arial
1071
      256
  0
STYLE
  5
C7
330
3
100
AcDbSymbolTableRecord
100
AcDbTextStyleTableRecord
  2
STANDARD-TC_020513_DINGroßer Text
 70
     0
 40
0.0
 41
1.0
 50
0.0
 71
     0
 42
0.2
  3
ARIAL.TTF
  4

1001
ACAD
1000
Arial
1071
      256
  0
STYLE
  5
C8
330
3
100
AcDbSymbolTableRecord
100
AcDbTextStyleTableRecord
  2
STANDARD-TC_020513_DINNach Layer
 70
     0
 40
0.0
 41
1.0
 50
0.0
 71
     0
 42
0.2
  3
ARIAL.TTF
  4

1001
ACAD
1000
Arial
1071
      256
  0
STYLE
  5
C9
330
3
100
AcDbSymbolTableRecord
100
AcDbTextStyleTableRecord
  2
TC 2_5 mm
 70
     0
 40
0.0
 41
0.899999976158142
 50
0.0
 71
     0
 42
0.2
  3
ARIAL.TTF
  4

1001
ACAD
1000
Arial
1071
      256
  0
STYLE
  5
CA
330
3
100
AcDbSymbolTableRecord
100
AcDbTextStyleTableRecord
  2
TC 3_5 mm
 70
     0
 40
0.0
 41
0.7999999523162842
 50
0.0
 71
     0
 42
0.2
  3
ARIAL.TTF
  4

1001
ACAD
1000
Arial
1071
      256
  0
STYLE
  5
CB
330
3
100
AcDbSymbolTableRecord
100
AcDbTextStyleTableRecord
  2
TC 3_5 mmGroßer Text
 70
     0
 40
0.0
 41
0.899999976158142
 50
0.0
 71
     0
 42
0.2
  3
ARIAL.TTF
  4

1001
ACAD
1000
Arial
1071
      256
  0
STYLE
  5
CC
330
3
100
AcDbSymbolTableRecord
100
AcDbTextStyleTableRecord
  2
TC 3_5 mmNach Layer
 70
     0
 40
0.0
 41
0.899999976158142
 50
0.0
 71
     0
 42
0.2
  3
ARIAL.TTF
  4

1001
ACAD
1000
Arial
1071
      256
  0
STYLE
  5
CD
330
3
100
AcDbSymbolTableRecord
100
AcDbTextStyleTableRecord
  2
TC 4 mm
 70
     0
 40
0.0
 41
1.199999928474426
 50
0.0
 71
     0
 42
0.2
  3
ARIAL.TTF
  4

1001
ACAD
1000
Arial
1071
      256
  0
STYLE
  5
CE
330
3
100
AcDbSymbolTableRecord
100
AcDbTextStyleTableRecord
  2
TC 5 mm
 70
     0
 40
0.0
 41
0.899999976158142
 50
0.0
 71
     0
 42
0.2
  3
ARIAL.TTF
  4

1001
ACAD
1000
Arial
1071
      256
  0
STYLE
  5
CF
330
3
100
AcDbSymbolTableRecord
100
AcDbTextStyleTableRecord
  2
TC 5 mmNach Layer
 70
     0
 40
0.0
 41
0.899999976158142
 50
0.0
 71
     0
 42
0.2
  3
ARIAL.TTF
  4

1001
ACAD
1000
Arial
1071
      256
  0
STYLE
  5
D0
330
3
100
AcDbSymbolTableRecord
100
AcDbTextStyleTableRecord
  2
TC 7 mm
 70
     0
 40
0.0
 41
0.899999976158142
 50
0.0
 71
     0
 42
0.2
  3
ARIAL.TTF
  4

1001
ACAD
1000
Arial
1071
      256
  0
STYLE
  5
F9
330
3
100
AcDbSymbolTableRecord
100
AcDbTextStyleTableRecord
  2
TC 2_5 mm-ISOCPEUR
 70
     0
 40
0.0
 41
0.899999976158142
 50
0.0
 71
     0
 42
0.2
  3
isocpeur.ttf
  4

1001
ACAD
1000
ISOCPEUR
1071
      256
  0
STYLE
  5
FD
330
3
100
AcDbSymbolTableRecord
100
AcDbTextStyleTableRecord
  2
TC 3_5 mm-ISOCPEUR
 70
     0
 40
0.0
 41
0.899999976158142
 50
0.0
 71
     0
 42
0.2
  3
isocpeur.ttf
  4

1001
ACAD
1000
ISOCPEUR
1071
      256
  0
ENDTAB
  0
TABLE
  2
VIEW
  5
6
330
0
100
AcDbSymbolTable
 70
     0
  0
ENDTAB
  0
TABLE
  2
UCS
  5
7
330
0
100
AcDbSymbolTable
 70
     0
  0
ENDTAB
  0
TABLE
  2
APPID
  5
9
330
0
100
AcDbSymbolTable
 70
     1
  0
APPID
  5
27
330
9
100
AcDbSymbolTableRecord
100
AcDbRegAppTableRecord
  2
ACAD
 70
     0
  0
ENDTAB
  0
TABLE
  2
DIMSTYLE
  5
A
330
0
100
AcDbSymbolTable
 70
    17
100
AcDbDimStyleTable
 71
     2
340
D1
340
3F
  0
DIMSTYLE
105
3F
330
A
100
AcDbSymbolTableRecord
100
AcDbDimStyleTableRecord
  2
Standard
 70
     0
340
26
  0
DIMSTYLE
105
D1
102
{ACAD_REACTORS
330
627
330
6ED
330
7B2
330
877
330
93D
330
A02
330
AC7
330
B8C
330
C51
330
D16
330
DDB
102
}
330
A
100
AcDbSymbolTableRecord
100
AcDbDimStyleTableRecord
  2
STANDARD-TC_020513_DIN
 70
     0
 40
2.0
 41
2.5
 42
1.0
 43
6.0
 44
2.0
 45
0.00000001
 46
10.0
 73
     0
 74
     0
 77
     1
 78
    12
 79
     3
140
3.5
143
0.03937
147
0.8
171
     3
172
     1
176
     7
177
     7
178
     7
271
     2
272
     2
274
     3
278
    44
340
C4
371
    25
372
    25
  0
DIMSTYLE
105
D2
330
A
100
AcDbSymbolTableRecord
100
AcDbDimStyleTableRecord
  2
STANDARD-TC_020513_DIN$7
 70
     0
 40
2.0
 41
2.5
 42
1.0
 43
6.0
 44
2.0
 45
0.00000001
 46
10.0
 73
     0
 74
     0
 77
     1
 78
    12
 79
     3
140
3.5
143
0.03937
147
0.8
171
     3
172
     1
176
     7
177
     7
178
     7
271
     2
272
     2
274
     3
278
    44
340
C4
371
    25
372
    25
  0
DIMSTYLE
105
D3
330
A
100
AcDbSymbolTableRecord
100
AcDbDimStyleTableRecord
  2
STANDARD-TC_020513_DINGroßer Text
 70
     0
 40
2.0
 41
5.0
 42
0.0
 43
6.0
 44
3.174999999999999
 45
0.00000001
 46
10.0
 73
     0
 74
     0
 77
     1
140
5.25
143
0.03937
146
0.6666666666666666
147
0.8
171
     3
172
     1
176
     7
177
     7
178
     7
271
     2
272
     2
274
     3
278
    44
340
C7
371
    25
372
    25
  0
DIMSTYLE
105
D4
330
A
100
AcDbSymbolTableRecord
100
AcDbDimStyleTableRecord
  2
STANDARD-TC_020513_DINGroßer Text$7
 70
     0
 40
2.0
 41
5.0
 42
0.0
 43
6.0
 44
3.174999999999999
 45
0.00000001
 46
10.0
 73
     0
 74
     0
 77
     1
140
5.25
143
0.03937
146
0.6666666666666666
147
0.8
171
     3
172
     1
176
     7
177
     7
178
     7
271
     2
272
     2
274
     3
278
    44
340
C7
371
    25
372
    25
  0
DIMSTYLE
105
D5
330
A
100
AcDbSymbolTableRecord
100
AcDbDimStyleTableRecord
  2
Teccon Kiel Stil
 70
     0
 40
2.0
 41
2.5
 42
0.0
 43
7.0
 44
2.0
 45
0.00000001
 46
10.0
 73
     0
 74
     0
 77
     1
 78
    12
 79
     3
140
3.5
143
0.03937
147
1.0
171
     3
172
     1
176
     7
177
     7
178
     7
179
     1
271
     1
272
     2
274
     3
278
    44
340
CA
371
    25
372
    25
  0
DIMSTYLE
105
D6
330
A
100
AcDbSymbolTableRecord
100
AcDbDimStyleTableRecord
  2
Teccon Kiel Stil$7
 70
     0
 40
2.0
 41
2.5
 42
0.0
 43
7.0
 44
2.0
 45
0.00000001
 46
10.0
 73
     0
 74
     0
 77
     1
 78
    12
 79
     3
140
3.5
143
0.03937
147
1.0
171
     3
172
     1
176
     7
177
     7
178
     7
179
     1
271
     1
272
     2
274
     3
278
    44
340
CA
371
    25
372
    25
  0
DIMSTYLE
105
D7
330
A
100
AcDbSymbolTableRecord
100
AcDbDimStyleTableRecord
  2
Teccon Kiel StilGroßer Text
 70
     0
 40
2.0
 41
5.0
 42
0.0
 43
7.0
 44
2.0
 45
0.00000001
 46
10.0
 73
     0
 74
     0
 77
     1
 78
    12
 79
     3
140
5.25
143
0.03937
146
0.6666666666666666
147
1.0
171
     3
172
     1
176
     7
177
     7
178
     7
179
     1
271
     1
272
     2
274
     3
278
    44
340
CB
371
    25
372
    25
  0
DIMSTYLE
105
D8
330
A
100
AcDbSymbolTableRecord
100
AcDbDimStyleTableRecord
  2
Teccon Kiel StilGroßer Text$7
 70
     0
 40
2.0
 41
5.0
 42
0.0
 43
7.0
 44
2.0
 45
0.00000001
 46
10.0
 73
     0
 74
     0
 77
     1
 78
    12
 79
     3
140
5.25
143
0.03937
146
0.6666666666666666
147
1.0
171
     3
172
     1
176
     7
177
     7
178
     7
179
     1
271
     1
272
     2
274
     3
278
    44
340
CB
371
    25
372
    25
  0
DIMSTYLE
105
D9
330
A
100
AcDbSymbolTableRecord
100
AcDbDimStyleTableRecord
  2
Führungslinie-Ursprungsindikator(ISO)
 70
     0
 40
2.0
 41
2.5
340
26
342
DA
  0
DIMSTYLE
105
E1
330
A
100
AcDbSymbolTableRecord
100
AcDbDimStyleTableRecord
  2
Führungslinie-Ursprungsindikator(TC_020513_DIN)
 70
     0
 40
2.0
 41
2.5
340
26
342
DA
  0
DIMSTYLE
105
EC
330
A
100
AcDbSymbolTableRecord
100
AcDbDimStyleTableRecord
  2
Führungslinie - Bezugsstelle(ISO)
 70
     0
 40
2.0
 41
2.5
340
26
342
DA
  0
DIMSTYLE
105
ED
330
A
100
AcDbSymbolTableRecord
100
AcDbDimStyleTableRecord
  2
Führungslinie - Bezugsstelle(TC_020513_DIN)
 70
     0
 40
2.0
 41
2.5
340
26
342
DA
  0
DIMSTYLE
105
EE
330
A
100
AcDbSymbolTableRecord
100
AcDbDimStyleTableRecord
  2
Führungslinie - Punkt(ISO)
 70
     0
 40
2.0
 41
2.5
340
26
342
DA
  0
DIMSTYLE
105
EF
330
A
100
AcDbSymbolTableRecord
100
AcDbDimStyleTableRecord
  2
Führungslinie - Punkt(TC_020513_DIN)
 70
     0
 40
2.0
 41
2.5
340
26
342
DA
  0
DIMSTYLE
105
F0
330
A
100
AcDbSymbolTableRecord
100
AcDbDimStyleTableRecord
  2
Führungslinie(ISO)
 70
     0
 40
2.0
 41
2.5
340
26
342
DA
  0
DIMSTYLE
105
F1
330
A
100
AcDbSymbolTableRecord
100
AcDbDimStyleTableRecord
  2
Führungslinie(TC_020513_DIN)
 70
     0
 40
2.0
 41
2.5
340
26
342
DA
  0
ENDTAB
  0
TABLE
  2
BLOCK_RECORD
  5
1
330
0
100
AcDbSymbolTable
 70
    22
  0
BLOCK_RECORD
  5
37
330
1
100
AcDbSymbolTableRecord
100
AcDbBlockTableRecord
  2
*Model_Space
340
3A
  0
BLOCK_RECORD
  5
33
330
1
100
AcDbSymbolTableRecord
100
AcDbBlockTableRecord
  2
*Paper_Space
340
36
  0
BLOCK_RECORD
  5
3B
330
1
100
AcDbSymbolTableRecord
100
AcDbBlockTableRecord
  2
*Paper_Space0
340
3E
  0
BLOCK_RECORD
  5
DA
330
1
100
AcDbSymbolTableRecord
100
AcDbBlockTableRecord
  2
_Closed
340
0
  0
BLOCK_RECORD
  5
E2
330
1
100
AcDbSymbolTableRecord
100
AcDbBlockTableRecord
  2
DatumFilled45
340
0
  0
BLOCK_RECORD
  5
F2
330
1
100
AcDbSymbolTableRecord
100
AcDbBlockTableRecord
  2
DIN 6930 (Toleranzklasse)
340
0
  0
BLOCK_RECORD
  5
103
330
1
100
AcDbSymbolTableRecord
100
AcDbBlockTableRecord
  2
nicht bemaßte Radien
340
0
  0
BLOCK_RECORD
  5
10C
330
1
100
AcDbSymbolTableRecord
100
AcDbBlockTableRecord
  2
DIN ISO 13715 (Werkstückkanten)
340
0
  0
BLOCK_RECORD
  5
130
330
1
100
AcDbSymbolTableRecord
100
AcDbBlockTableRecord
  2
EN 12329 (Chromatierung)
340
0
  0
BLOCK_RECORD
  5
138
330
1
100
AcDbSymbolTableRecord
100
AcDbBlockTableRecord
  2
ISO 2768 (zul. Abweichung)
340
0
  0
BLOCK_RECORD
  5
141
330
1
100
AcDbSymbolTableRecord
100
AcDbBlockTableRecord
  2
DIN ISO 1302 (Oberflächen)
340
0
  0
BLOCK_RECORD
  5
149
330
1
100
AcDbSymbolTableRecord
100
AcDbBlockTableRecord
  2
Ränder Ilme Rahmen A4 quer
340
0
102
{BLKREFS
331
153
102
}
  0
BLOCK_RECORD
  5
154
330
1
100
AcDbSymbolTableRecord
100
AcDbBlockTableRecord
  2
Schriftfelder Ilme
340
0
102
{BLKREFS
331
1C7
102
}
  0
BLOCK_RECORD
  5
629
330
1
100
AcDbSymbolTableRecord
100
AcDbBlockTableRecord
  2
*D11
340
0
  0
BLOCK_RECORD
  5
6EE
330
1
100
AcDbSymbolTableRecord
100
AcDbBlockTableRecord
  2
*D12
340
0
  0
BLOCK_RECORD
  5
7B3
330
1
100
AcDbSymbolTableRecord
100
AcDbBlockTableRecord
  2
*D13
340
0
  0
BLOCK_RECORD
  5
878
330
1
100
AcDbSymbolTableRecord
100
AcDbBlockTableRecord
  2
*D14
340
0
  0
BLOCK_RECORD
  5
93E
330
1
100
AcDbSymbolTableRecord
100
AcDbBlockTableRecord
  2
*D15
340
0
  0
BLOCK_RECORD
  5
A03
330
1
100
AcDbSymbolTableRecord
100
AcDbBlockTableRecord
  2
*D16
340
0
  0
BLOCK_RECORD
  5
AC8
330
1
100
AcDbSymbolTableRecord
100
AcDbBlockTableRecord
  2
*D17
340
0
  0
BLOCK_RECORD
  5
B8D
330
1
100
AcDbSymbolTableRecord
100
AcDbBlockTableRecord
  2
*D18
340
0
  0
BLOCK_RECORD
  5
C52
330
1
100
AcDbSymbolTableRecord
100
AcDbBlockTableRecord
  2
*D19
340
0
  0
BLOCK_RECORD
  5
D17
330
1
100
AcDbSymbolTableRecord
100
AcDbBlockTableRecord
  2
*D20
340
0
  0
BLOCK_RECORD
  5
DDC
330
1
100
AcDbSymbolTableRecord
100
AcDbBlockTableRecord
  2
*D21
340
0
  0
ENDTAB
  0
ENDSEC
  0
SECTION
  2
BLOCKS
  0
BLOCK
  5
38
330
37
100
AcDbEntity
  8
0
100
AcDbBlockBegin
  2
*Model_Space
 70
     0
 10
0.0
 20
0.0
 30
0.0
  3
*Model_Space
  1

  0
ENDBLK
  5
39
330
37
100
AcDbEntity
  8
0
100
AcDbBlockEnd
  0
BLOCK
  5
34
330
33
100
AcDbEntity
 67
     1
  8
0
100
AcDbBlockBegin
  2
*Paper_Space
 70
     0
 10
0.0
 20
0.0
 30
0.0
  3
*Paper_Space
  1

  0
ENDBLK
  5
35
330
33
100
AcDbEntity
 67
     1
  8
0
100
AcDbBlockEnd
  0
BLOCK
  5
3C
330
3B
100
AcDbEntity
 67
     1
  8
0
100
AcDbBlockBegin
  2
*Paper_Space0
 70
     0
 10
0.0
 20
0.0
 30
0.0
  3
*Paper_Space0
  1

  0
ENDBLK
  5
3D
330
3B
100
AcDbEntity
 67
     1
  8
0
100
AcDbBlockEnd
  0
BLOCK
  5
DF
330
DA
100
AcDbEntity
  8
0
100
AcDbBlockBegin
  2
_Closed
 70
     0
 10
0.0
 20
0.0
 30
0.0
  3
_Closed
  1

  0
LINE
  5
DB
330
DA
100
AcDbEntity
  8
0
  6
ByBlock
 62
     0
370
    -2
100
AcDbLine
 10
-1.0
 20
0.1666666666666666
 30
0.0
 11
0.0
 21
0.0
 31
0.0
  0
LINE
  5
DC
330
DA
100
AcDbEntity
  8
0
  6
ByBlock
 62
     0
370
    -2
100
AcDbLine
 10
0.0
 20
0.0
 30
0.0
 11
-1.0
 21
-0.1666666666666666
 31
0.0
  0
LINE
  5
DD
330
DA
100
AcDbEntity
  8
0
  6
ByBlock
 62
     0
370
    -2
100
AcDbLine
 10
-1.0
 20
0.1666666666666666
 30
0.0
 11
-1.0
 21
-0.1666666666666666
 31
0.0
  0
LINE
  5
DE
330
DA
100
AcDbEntity
  8
0
  6
ByBlock
 62
     0
370
    -2
100
AcDbLine
 10
0.0
 20
0.0
 30
0.0
 11
-1.0
 21
0.0
 31
0.0
  0
ENDBLK
  5
E0
330
DA
100
AcDbEntity
  8
0
100
AcDbBlockEnd
  0
BLOCK
  5
E3
330
E2
100
AcDbEntity
  8
0
100
AcDbBlockBegin
  2
DatumFilled45
 70
     0
 10
0.0
 20
0.0
 30
0.0
  3
DatumFilled45
  1

  0
POLYLINE
  5
E5
330
E2
100
AcDbEntity
  8
0
 62
     0
100
AcDb2dPolyline
 66
     1
 10
0.0
 20
0.0
 30
0.0
 70
   128
  0
VERTEX
  5
E6
330
E5
100
AcDbEntity
  8
0
 62
     0
100
AcDbVertex
100
AcDb2dVertex
 10
0.0
 20
1.0
 30
0.0
  0
VERTEX
  5
E7
330
E5
100
AcDbEntity
  8
0
 62
     0
100
AcDbVertex
100
AcDb2dVertex
 10
0.0
 20
-1.0
 30
0.0
  0
VERTEX
  5
E9
330
E5
100
AcDbEntity
  8
0
 62
     0
100
AcDbVertex
100
AcDb2dVertex
 10
-1.0
 20
0.0
 30
0.0
  0
VERTEX
  5
EA
330
E5
100
AcDbEntity
  8
0
 62
     0
100
AcDbVertex
100
AcDb2dVertex
 10
0.0
 20
1.0
 30
0.0
  0
SEQEND
  5
E8
330
E5
100
AcDbEntity
  8
0
 62
     0
  0
SOLID
  5
EB
330
E2
100
AcDbEntity
  8
0
 62
     0
100
AcDbTrace
 10
0.0
 20
1.0
 30
0.0
 11
0.0
 21
-1.0
 31
0.0
 12
-1.0
 22
0.0
 32
0.0
 13
0.0
 23
1.0
 33
0.0
  0
ENDBLK
  5
E4
330
E2
100
AcDbEntity
  8
0
100
AcDbBlockEnd
  0
BLOCK
  5
F3
330
F2
100
AcDbEntity
  8
0
100
AcDbBlockBegin
  2
DIN 6930 (Toleranzklasse)
 70
     2
 10
0.0
 20
0.0
 30
0.0
  3
DIN 6930 (Toleranzklasse)
  1

  0
LINE
  5
F5
330
F2
100
AcDbEntity
  8
Skizziergeometrie(ISO)
100
AcDbLine
 10
-49.99999999999999
 20
24.99999999999996
 30
0.0
 11
0.0
 21
24.99999999999996
 31
0.0
  0
LINE
  5
F6
330
F2
100
AcDbEntity
  8
Skizziergeometrie(ISO)
100
AcDbLine
 10
0.0
 20
24.99999999999996
 30
0.0
 11
0.0
 21
0.0
 31
0.0
  0
LINE
  5
F7
330
F2
100
AcDbEntity
  8
Skizziergeometrie(ISO)
100
AcDbLine
 10
0.0
 20
0.0
 30
0.0
 11
-49.99999999999999
 21
0.0
 31
0.0
  0
LINE
  5
F8
330
F2
100
AcDbEntity
  8
Skizziergeometrie(ISO)
100
AcDbLine
 10
-49.99999999999999
 20
0.0
 30
0.0
 11
-49.99999999999999
 21
24.99999999999996
 31
0.0
  0
MTEXT
  5
FA
102
{ACAD_XDICTIONARY
360
ED2
102
}
330
F2
100
AcDbEntity
  8
Symbole(ISO)
 62
     7
100
AcDbMText
 10
-25.01617139266887
 20
22.49496284479633
 30
0.0
 40
2.5
 41
49.93534911063455
 71
     5
 72
     1
  1
F\U+00FCr spanlose Bearbeitung
  7
TC 2_5 mm-ISOCPEUR
 73
     1
 44
1.0
1001
ACAD
1000
MTEXTBEGIN
1070
    73
1070
     1
1070
    44
1040
1.0
1070
    74
1070
     0
1000
MTEXTEND
  0
MTEXT
  5
FC
330
F2
100
AcDbEntity
  8
Symbole(ISO)
 62
     7
100
AcDbMText
 10
-24.96550299476308
 20
17.97814514565743
 30
0.0
 40
2.5
 41
49.94698265738096
 71
     5
 72
     1
  1
Allgemeintoleranz
  7
TC 2_5 mm-ISOCPEUR
 73
     1
 44
1.0
1001
ACAD
1000
MTEXTBEGIN
1070
    73
1070
     1
1070
    44
1040
1.0
1070
    74
1070
     0
1000
MTEXTEND
  0
MTEXT
  5
FE
330
F2
100
AcDbEntity
  8
Symbole(ISO)
 62
     7
100
AcDbMText
 10
-22.00032990803074
 20
12.97814514565747
 30
0.0
 40
3.499999940395355
 41
28.04641142085023
 71
     6
 72
     1
  1
DIN 6930-
  7
TC 3_5 mm-ISOCPEUR
 73
     1
 44
1.0
1001
ACAD
1000
MTEXTBEGIN
1070
    73
1070
     1
1070
    44
1040
1.0
1070
    74
1070
     0
1000
MTEXTEND
  0
MTEXT
  5
FF
330
F2
100
AcDbEntity
  8
Symbole(ISO)
 62
     7
100
AcDbMText
 10
-24.98510412015335
 20
5.018941170990345
 30
0.0
 40
2.5
 41
50.05946813167525
 71
     5
 72
     1
  1
(zul. Abweichung der\PWinkelstellung DIN 6935)
  7
TC 2_5 mm-ISOCPEUR
 73
     2
 44
1.068348169326782
1001
ACAD
1000
MTEXTBEGIN
1070
    73
1070
     2
1070
    44
1040
1.068348169326782
1070
    74
1070
     0
1000
MTEXTEND
  0
ATTDEF
  5
100
330
F2
100
AcDbEntity
  8
Symbole(ISO)
 62
     7
100
AcDbText
 10
-21.93383492465724
 20
11.2184168455105
 30
0.0
 40
3.499999940395355
  1
 
 41
0.899999976158142
  7
TC 3_5 mm-ISOCPEUR
 11
-21.93383492465724
 21
12.96841681570818
 31
0.0
100
AcDbAttributeDefinition
  3
Toleranzklasse
  2
Toleranzklasse
 70
     0
 74
     2
  0
ENDBLK
  5
F4
330
F2
100
AcDbEntity
  8
0
100
AcDbBlockEnd
  0
BLOCK
  5
104
330
103
100
AcDbEntity
  8
0
100
AcDbBlockBegin
  2
nicht bemaßte Radien
 70
     2
 10
0.0
 20
0.0
 30
0.0
  3
nicht bemaßte Radien
  1

  0
LINE
  5
106
330
103
100
AcDbEntity
  8
Skizziergeometrie(ISO)
100
AcDbLine
 10
0.0
 20
0.0
 30
0.0
 11
-50.0
 21
0.0
 31
0.0
  0
LINE
  5
107
330
103
100
AcDbEntity
  8
Skizziergeometrie(ISO)
100
AcDbLine
 10
-50.0
 20
0.0
 30
0.0
 11
-50.0
 21
5.0
 31
0.0
  0
LINE
  5
108
330
103
100
AcDbEntity
  8
Skizziergeometrie(ISO)
100
AcDbLine
 10
-50.0
 20
5.0
 30
0.0
 11
0.0
 21
5.0
 31
0.0
  0
LINE
  5
109
330
103
100
AcDbEntity
  8
Skizziergeometrie(ISO)
100
AcDbLine
 10
0.0
 20
5.0
 30
0.0
 11
0.0
 21
0.0
 31
0.0
  0
MTEXT
  5
10A
102
{ACAD_XDICTIONARY
360
ED4
102
}
330
103
100
AcDbEntity
  8
Symbole(ISO)
 62
     7
100
AcDbMText
 10
-28.98102517277721
 20
2.530616500783118
 30
0.0
 40
2.5
 41
41.95492584233122
 71
     5
 72
     1
  1
Alle nicht bema\U+00DFten Radien R
  7
TC 2_5 mm-ISOCPEUR
 73
     1
 44
1.0
1001
ACAD
1000
MTEXTBEGIN
1070
    73
1070
     1
1070
    44
1040
1.0
1070
    74
1070
     0
1000
MTEXTEND
  0
ATTDEF
  5
10B
330
103
100
AcDbEntity
  8
Symbole(ISO)
 62
     7
100
AcDbText
 10
-4.624331584212832
 20
1.293984431277515
 30
0.0
 40
2.5
  1
 
 41
0.899999976158142
  7
TC 2_5 mm-ISOCPEUR
 72
     1
 11
-3.949331602094225
 21
2.543984431277515
 31
0.0
100
AcDbAttributeDefinition
  3
Radius
  2
Radius
 70
     0
 74
     2
  0
ENDBLK
  5
105
330
103
100
AcDbEntity
  8
0
100
AcDbBlockEnd
  0
BLOCK
  5
10D
330
10C
100
AcDbEntity
  8
0
100
AcDbBlockBegin
  2
DIN ISO 13715 (Werkstückkanten)
 70
     2
 10
0.0
 20
0.0
 30
0.0
  3
DIN ISO 13715 (Werkstückkanten)
  1

  0
LINE
  5
10F
102
{ACAD_REACTORS
330
112
102
}
330
10C
100
AcDbEntity
  8
0
100
AcDbLine
 10
-35.0
 20
20.0
 30
0.0
 11
-32.75944236602587
 21
21.71924034067061
 31
0.0
  0
LINE
  5
110
102
{ACAD_REACTORS
330
112
102
}
330
10C
100
AcDbEntity
  8
0
100
AcDbLine
 10
-33.28075965932943
 20
22.24055763397416
 30
0.0
 11
-35.0
 21
20.0
 31
0.0
  0
LINE
  5
111
102
{ACAD_REACTORS
330
112
102
}
330
10C
100
AcDbEntity
  8
0
100
AcDbLine
 10
-32.75944236602587
 20
21.71924034067061
 30
0.0
 11
-33.28075965932943
 21
22.24055763397416
 31
0.0
  0
HATCH
  5
112
330
10C
100
AcDbEntity
  8
Schraffur
 62
     7
100
AcDbHatch
 10
0.0
 20
0.0
 30
0.0
210
0.0
220
0.0
230
1.0
  2
SOLID
 70
     1
 71
     1
 91
        1
 92
        1
 93
        3
 72
     1
 10
-35.0
 20
20.0
 11
-32.75944236602587
 21
21.71924034067061
 72
     1
 10
-32.75944236602587
 20
21.71924034067061
 11
-33.28075965932943
 21
22.24055763397416
 72
     1
 10
-33.28075965932943
 20
22.24055763397416
 11
-35.0
 21
20.0
 97
        3
330
10F
330
111
330
110
 75
     0
 76
     1
 98
        1
 10
0.0
 20
0.0
  0
LINE
  5
113
102
{ACAD_REACTORS
330
116
102
}
330
10C
100
AcDbEntity
  8
0
100
AcDbLine
 10
-20.00000000000003
 20
20.00000000000003
 30
0.0
 11
-17.7594423660259
 21
21.71924034067057
 31
0.0
  0
LINE
  5
114
102
{ACAD_REACTORS
330
116
102
}
330
10C
100
AcDbEntity
  8
0
100
AcDbLine
 10
-18.28075965932939
 20
22.24055763397406
 30
0.0
 11
-20.00000000000003
 21
20.00000000000003
 31
0.0
  0
LINE
  5
115
102
{ACAD_REACTORS
330
116
102
}
330
10C
100
AcDbEntity
  8
0
100
AcDbLine
 10
-17.7594423660259
 20
21.71924034067057
 30
0.0
 11
-18.28075965932939
 21
22.24055763397406
 31
0.0
  0
HATCH
  5
116
330
10C
100
AcDbEntity
  8
Schraffur
 62
     7
100
AcDbHatch
 10
0.0
 20
0.0
 30
0.0
210
0.0
220
0.0
230
1.0
  2
SOLID
 70
     1
 71
     1
 91
        1
 92
        1
 93
        3
 72
     1
 10
-20.00000000000003
 20
20.00000000000003
 11
-17.7594423660259
 21
21.71924034067057
 72
     1
 10
-17.7594423660259
 20
21.71924034067057
 11
-18.28075965932939
 21
22.24055763397406
 72
     1
 10
-18.28075965932939
 20
22.24055763397406
 11
-20.00000000000003
 21
20.00000000000003
 97
        3
330
113
330
115
330
114
 75
     0
 76
     1
 98
        1
 10
0.0
 20
0.0
  0
LINE
  5
117
330
10C
100
AcDbEntity
  8
Skizziergeometrie(ISO)
100
AcDbLine
 10
-39.89999999999998
 20
20.0
 30
0.0
 11
-35.0
 21
20.0
 31
0.0
  0
LINE
  5
118
330
10C
100
AcDbEntity
  8
Skizziergeometrie(ISO)
100
AcDbLine
 10
-35.0
 20
20.0
 30
0.0
 11
-34.99999999999996
 21
15.09999999999998
 31
0.0
  0
LINE
  5
119
330
10C
100
AcDbEntity
  8
Skizziergeometrie(ISO)
100
AcDbLine
 10
-20.00000000000003
 20
20.00000000000003
 30
0.0
 11
-15.10000000000005
 21
20.00000000000003
 31
0.0
  0
LINE
  5
11A
330
10C
100
AcDbEntity
  8
Skizziergeometrie(ISO)
100
AcDbLine
 10
-20.00000000000003
 20
20.00000000000003
 30
0.0
 11
-20.00000000000003
 21
24.90000000000002
 31
0.0
  0
LINE
  5
11B
330
10C
100
AcDbEntity
  8
Skizziergeometrie(ISO)
100
AcDbLine
 10
-35.0
 20
20.0
 30
0.0
 11
-31.28768939877062
 21
23.71231060122938
 31
0.0
  0
LINE
  5
11C
330
10C
100
AcDbEntity
  8
Skizziergeometrie(ISO)
100
AcDbLine
 10
-31.28768939877062
 20
23.71231060122938
 30
0.0
 11
-26.3876893987706
 21
23.71231060122938
 31
0.0
  0
LINE
  5
11D
330
10C
100
AcDbEntity
  8
Skizziergeometrie(ISO)
100
AcDbLine
 10
-35.0
 20
20.0
 30
0.0
 11
-33.28075965932943
 21
22.24055763397416
 31
0.0
  0
LINE
  5
11E
330
10C
100
AcDbEntity
  8
Skizziergeometrie(ISO)
100
AcDbLine
 10
-33.28075965932943
 20
22.24055763397416
 30
0.0
 11
-32.75944236602587
 21
21.71924034067061
 31
0.0
  0
LINE
  5
11F
330
10C
100
AcDbEntity
  8
Skizziergeometrie(ISO)
100
AcDbLine
 10
-32.75944236602587
 20
21.71924034067061
 30
0.0
 11
-35.0
 21
20.0
 31
0.0
  0
LINE
  5
120
330
10C
100
AcDbEntity
  8
Skizziergeometrie(ISO)
100
AcDbLine
 10
-31.28768939877062
 20
23.71231060122938
 30
0.0
 11
-31.28768939877062
 21
28.61231060122936
 31
0.0
  0
LINE
  5
121
330
10C
100
AcDbEntity
  8
Skizziergeometrie(ISO)
100
AcDbLine
 10
-18.02010101267761
 20
21.97989898732235
 30
0.0
 11
-16.28768939877059
 21
23.71231060122938
 31
0.0
  0
LINE
  5
122
330
10C
100
AcDbEntity
  8
Skizziergeometrie(ISO)
100
AcDbLine
 10
-16.28768939877059
 20
23.71231060122938
 30
0.0
 11
-11.3876893987706
 21
23.71231060122938
 31
0.0
  0
LINE
  5
123
330
10C
100
AcDbEntity
  8
Skizziergeometrie(ISO)
100
AcDbLine
 10
-20.00000000000003
 20
20.00000000000003
 30
0.0
 11
-18.28075965932939
 21
22.24055763397406
 31
0.0
  0
LINE
  5
124
330
10C
100
AcDbEntity
  8
Skizziergeometrie(ISO)
100
AcDbLine
 10
-18.28075965932939
 20
22.24055763397406
 30
0.0
 11
-17.7594423660259
 21
21.71924034067057
 31
0.0
  0
LINE
  5
125
330
10C
100
AcDbEntity
  8
Skizziergeometrie(ISO)
100
AcDbLine
 10
-17.7594423660259
 20
21.71924034067057
 30
0.0
 11
-20.00000000000003
 21
20.00000000000003
 31
0.0
  0
LINE
  5
126
330
10C
100
AcDbEntity
  8
Skizziergeometrie(ISO)
100
AcDbLine
 10
-16.28768939877059
 20
23.71231060122938
 30
0.0
 11
-16.28768939877059
 21
28.61231060122936
 31
0.0
  0
LINE
  5
127
330
10C
100
AcDbEntity
  8
Skizziergeometrie(ISO)
100
AcDbLine
 10
-49.99999999999999
 20
35.0
 30
0.0
 11
0.0
 21
35.0
 31
0.0
  0
LINE
  5
128
330
10C
100
AcDbEntity
  8
Skizziergeometrie(ISO)
100
AcDbLine
 10
0.0
 20
35.0
 30
0.0
 11
0.0
 21
0.0
 31
0.0
  0
LINE
  5
129
330
10C
100
AcDbEntity
  8
Skizziergeometrie(ISO)
100
AcDbLine
 10
0.0
 20
0.0
 30
0.0
 11
-49.99999999999999
 21
0.0
 31
0.0
  0
LINE
  5
12A
330
10C
100
AcDbEntity
  8
Skizziergeometrie(ISO)
100
AcDbLine
 10
-49.99999999999999
 20
0.0
 30
0.0
 11
-49.99999999999999
 21
35.0
 31
0.0
  0
MTEXT
  5
12B
102
{ACAD_XDICTIONARY
360
ED6
102
}
330
10C
100
AcDbEntity
  8
Symbole(ISO)
 62
     7
100
AcDbMText
 10
-24.97893135154584
 20
10.23779293592927
 30
0.0
 40
3.499999940395355
 41
49.9873458157533
 71
     5
 72
     1
  1
Werkst\U+00FCckkanten\Pnach ISO 13715
  7
TC 3_5 mm-ISOCPEUR
 73
     2
 44
1.068348169326782
1001
ACAD
1000
MTEXTBEGIN
1070
    73
1070
     2
1070
    44
1040
1.068348169326782
1070
    74
1070
     0
1000
MTEXTEND
  0
ATTDEF
  5
12C
330
10C
100
AcDbEntity
  8
Symbole(ISO)
 62
     7
100
AcDbText
 10
-30.16177492853139
 20
24.5808246293851
 30
0.0
 40
2.5
  1
 
 41
0.899999976158142
  7
TC 2_5 mm-ISOCPEUR
 11
-30.16177492853139
 21
25.8308246293851
 31
0.0
100
AcDbAttributeDefinition
  3
AK unten
  2
AK_unten
 70
     0
 74
     2
  0
ATTDEF
  5
12D
330
10C
100
AcDbEntity
  8
Symbole(ISO)
 62
     7
100
AcDbText
 10
-30.17792390794348
 20
27.58528770975683
 30
0.0
 40
2.5
  1
 
 41
0.899999976158142
  7
TC 2_5 mm-ISOCPEUR
 11
-30.17792390794348
 21
28.83528770975683
 31
0.0
100
AcDbAttributeDefinition
  3
AK oben
  2
AK_oben
 70
     0
 74
     2
  0
ATTDEF
  5
12E
330
10C
100
AcDbEntity
  8
Symbole(ISO)
 62
     7
100
AcDbText
 10
-15.11922386270676
 20
24.61259748150297
 30
0.0
 40
2.5
  1
 
 41
0.899999976158142
  7
TC 2_5 mm-ISOCPEUR
 11
-15.11922386270676
 21
25.86259748150297
 31
0.0
100
AcDbAttributeDefinition
  3
IK unten
  2
IK_unten
 70
     0
 74
     2
  0
ATTDEF
  5
12F
330
10C
100
AcDbEntity
  8
Symbole(ISO)
 62
     7
100
AcDbText
 10
-15.14487582203273
 20
27.61806754523864
 30
0.0
 40
2.5
  1
 
 41
0.899999976158142
  7
TC 2_5 mm-ISOCPEUR
 11
-15.14487582203273
 21
28.86806754523864
 31
0.0
100
AcDbAttributeDefinition
  3
IK oben
  2
IK_oben
 70
     0
 74
     2
  0
ENDBLK
  5
10E
330
10C
100
AcDbEntity
  8
0
100
AcDbBlockEnd
  0
BLOCK
  5
131
330
130
100
AcDbEntity
  8
0
100
AcDbBlockBegin
  2
EN 12329 (Chromatierung)
 70
     0
 10
0.0
 20
0.0
 30
0.0
  3
EN 12329 (Chromatierung)
  1

  0
LINE
  5
133
330
130
100
AcDbEntity
  8
Skizziergeometrie(ISO)
100
AcDbLine
 10
0.0
 20
0.0
 30
0.0
 11
-50.0
 21
0.0
 31
0.0
  0
LINE
  5
134
330
130
100
AcDbEntity
  8
Skizziergeometrie(ISO)
100
AcDbLine
 10
-50.0
 20
0.0
 30
0.0
 11
-50.0
 21
15.0
 31
0.0
  0
LINE
  5
135
330
130
100
AcDbEntity
  8
Skizziergeometrie(ISO)
100
AcDbLine
 10
-50.0
 20
15.0
 30
0.0
 11
0.0
 21
15.00000000000003
 31
0.0
  0
LINE
  5
136
330
130
100
AcDbEntity
  8
Skizziergeometrie(ISO)
100
AcDbLine
 10
0.0
 20
15.00000000000003
 30
0.0
 11
0.0
 21
0.0
 31
0.0
  0
MTEXT
  5
137
330
130
100
AcDbEntity
  8
Symbole(ISO)
 62
     7
100
AcDbMText
 10
-24.98833105758937
 20
7.490142772208123
 30
0.0
 40
2.5
 41
49.83545872181219
 71
     5
 72
     1
  1
Verzinkt FE / ZN / C\PEN 12329\P(gelb chromatiert)
  7
TC 2_5 mm-ISOCPEUR
 73
     2
 44
1.068348169326782
1001
ACAD
1000
MTEXTBEGIN
1070
    73
1070
     2
1070
    44
1040
1.068348169326782
1070
    74
1070
     0
1000
MTEXTEND
  0
ENDBLK
  5
132
330
130
100
AcDbEntity
  8
0
100
AcDbBlockEnd
  0
BLOCK
  5
139
330
138
100
AcDbEntity
  8
0
100
AcDbBlockBegin
  2
ISO 2768 (zul. Abweichung)
 70
     2
 10
0.0
 20
0.0
 30
0.0
  3
ISO 2768 (zul. Abweichung)
  1

  0
LINE
  5
13B
330
138
100
AcDbEntity
  8
Skizziergeometrie(ISO)
100
AcDbLine
 10
-26.0
 20
0.0
 30
0.0
 11
0.0
 21
0.0
 31
0.0
  0
LINE
  5
13C
330
138
100
AcDbEntity
  8
Skizziergeometrie(ISO)
100
AcDbLine
 10
0.0
 20
0.0
 30
0.0
 11
0.0
 21
17.0
 31
0.0
  0
LINE
  5
13D
330
138
100
AcDbEntity
  8
Skizziergeometrie(ISO)
100
AcDbLine
 10
0.0
 20
17.0
 30
0.0
 11
-26.0
 21
17.0
 31
0.0
  0
LINE
  5
13E
330
138
100
AcDbEntity
  8
Skizziergeometrie(ISO)
100
AcDbLine
 10
-26.0
 20
17.0
 30
0.0
 11
-26.0
 21
0.0
 31
0.0
  0
MTEXT
  5
13F
330
138
100
AcDbEntity
  8
Symbole(ISO)
 62
     7
100
AcDbMText
 10
-7.994454197588593
 20
5.526470854171373
 30
0.0
 40
2.5
 41
17.99309312940538
 71
     6
 72
     1
  1
ISO 2768-
  7
TC 2_5 mm-ISOCPEUR
 73
     1
 44
1.0
1001
ACAD
1000
MTEXTBEGIN
1070
    73
1070
     1
1070
    44
1040
1.0
1070
    74
1070
     0
1000
MTEXTEND
  0
ATTDEF
  5
140
330
138
100
AcDbEntity
  8
Symbole(ISO)
 62
     7
100
AcDbText
 10
-7.924832568762529
 20
4.240604076340716
 30
0.0
 40
2.5
  1
 
 41
0.899999976158142
  7
TC 2_5 mm-ISOCPEUR
 11
-7.924832568762529
 21
5.490604076340716
 31
0.0
100
AcDbAttributeDefinition
  3
Grad
  2
Grad
 70
     0
 74
     2
  0
ENDBLK
  5
13A
330
138
100
AcDbEntity
  8
0
100
AcDbBlockEnd
  0
BLOCK
  5
142
330
141
100
AcDbEntity
  8
0
100
AcDbBlockBegin
  2
DIN ISO 1302 (Oberflächen)
 70
     0
 10
0.0
 20
0.0
 30
0.0
  3
DIN ISO 1302 (Oberflächen)
  1

  0
LINE
  5
144
330
141
100
AcDbEntity
  8
Skizziergeometrie(ISO)
100
AcDbLine
 10
-18.19999999999999
 20
0.0
 30
0.0
 11
0.0
 21
0.0
 31
0.0
  0
LINE
  5
145
330
141
100
AcDbEntity
  8
Skizziergeometrie(ISO)
100
AcDbLine
 10
0.0
 20
0.0
 30
0.0
 11
0.0
 21
17.0
 31
0.0
  0
LINE
  5
146
330
141
100
AcDbEntity
  8
Skizziergeometrie(ISO)
100
AcDbLine
 10
0.0
 20
17.0
 30
0.0
 11
-18.2
 21
17.0
 31
0.0
  0
LINE
  5
147
330
141
100
AcDbEntity
  8
Skizziergeometrie(ISO)
100
AcDbLine
 10
-18.2
 20
17.0
 30
0.0
 11
-18.19999999999999
 21
0.0
 31
0.0
  0
MTEXT
  5
148
330
141
100
AcDbEntity
  8
Symbole(ISO)
 62
     7
100
AcDbMText
 10
-9.137586403397849
 20
5.561325836084813
 30
0.0
 40
2.5
 41
18.21623868792871
 71
     5
 72
     1
  1
DIN ISO 1302
  7
TC 2_5 mm-ISOCPEUR
 73
     1
 44
1.0
1001
ACAD
1000
MTEXTBEGIN
1070
    73
1070
     1
1070
    44
1040
1.0
1070
    74
1070
     0
1000
MTEXTEND
  0
ENDBLK
  5
143
330
141
100
AcDbEntity
  8
0
100
AcDbBlockEnd
  0
BLOCK
  5
14A
330
149
100
AcDbEntity
  8
0
100
AcDbBlockBegin
  2
Ränder Ilme Rahmen A4 quer
 70
     0
 10
0.0
 20
0.0
 30
0.0
  3
Ränder Ilme Rahmen A4 quer
  1

  0
LINE
  5
14C
330
149
100
AcDbEntity
  8
Skizziergeometrie(ISO)
100
AcDbLine
 10
9.999999999999982
 20
9.999999999999952
 30
0.0
 11
10.00000000000001
 21
190.0
 31
0.0
  0
LINE
  5
14D
330
149
100
AcDbEntity
  8
Skizziergeometrie(ISO)
100
AcDbLine
 10
10.00000000000001
 20
190.0
 30
0.0
 11
287.0
 21
190.0
 31
0.0
  0
LINE
  5
14E
330
149
100
AcDbEntity
  8
Skizziergeometrie(ISO)
100
AcDbLine
 10
9.999999999999982
 20
9.999999999999952
 30
0.0
 11
287.0
 21
10.00000000000003
 31
0.0
  0
LINE
  5
14F
330
149
100
AcDbEntity
  8
Skizziergeometrie(ISO)
100
AcDbLine
 10
148.5
 20
210.0
 30
0.0
 11
148.5
 21
196.0
 31
0.0
  0
LINE
  5
150
330
149
100
AcDbEntity
  8
Skizziergeometrie(ISO)
100
AcDbLine
 10
287.0
 20
190.0
 30
0.0
 11
287.0
 21
10.00000000000003
 31
0.0
  0
MTEXT
  5
151
330
149
100
AcDbEntity
  8
Symbole(ISO)
 62
     7
100
AcDbMText
 10
148.5
 20
196.0
 30
0.0
 40
3.499999940395355
 41
0.0
 71
     2
 72
     1
  1
\fISOCPEUR|b0|i0;\H3.5000;    Diritti riservati     All rights reseved
  7
TC 2_5 mm
 73
     1
 44
1.0
1001
ACAD
1000
MTEXTBEGIN
1070
    73
1070
     1
1070
    44
1040
1.0
1070
    74
1070
     0
1000
MTEXTEND
  0
ENDBLK
  5
14B
330
149
100
AcDbEntity
  8
0
100
AcDbBlockEnd
  0
BLOCK
  5
155
330
154
100
AcDbEntity
  8
0
100
AcDbBlockBegin
  2
Schriftfelder Ilme
 70
     2
 10
0.0
 20
0.0
 30
0.0
  3
Schriftfelder Ilme
  1

  0
ARC
  5
157
102
{ACAD_REACTORS
330
15B
102
}
330
154
100
AcDbEntity
  8
0
100
AcDbCircle
 10
184.655189950303
 20
19.15390948356282
 30
10.0
 40
0.3333333333333996
100
AcDbArc
 50
0.0
 51
180.0
  0
LINE
  5
158
102
{ACAD_REACTORS
330
15B
102
}
330
154
100
AcDbEntity
  8
0
100
AcDbLine
 10
184.3218566169696
 20
15.84737070168959
 30
10.0
 11
184.3218566169696
 21
19.15390948356282
 31
10.0
  0
ARC
  5
159
102
{ACAD_REACTORS
330
15B
102
}
330
154
100
AcDbEntity
  8
0
100
AcDbCircle
 10
184.655189950303
 20
15.84737070168959
 30
10.0
 40
0.3333333333333997
100
AcDbArc
 50
180.0
 51
0.0
  0
LINE
  5
15A
102
{ACAD_REACTORS
330
15B
102
}
330
154
100
AcDbEntity
  8
0
100
AcDbLine
 10
184.9885232836365
 20
19.15390948356282
 30
10.0
 11
184.9885232836365
 21
15.84737070168959
 31
10.0
  0
HATCH
  5
15B
330
154
100
AcDbEntity
  8
Schraffur
 62
     7
100
AcDbHatch
 10
0.0
 20
0.0
 30
0.0
210
0.0
220
0.0
230
1.0
  2
SOLID
 70
     1
 71
     1
 91
        1
 92
        1
 93
        4
 72
     2
 10
184.655189950303
 20
19.15390948356282
 40
0.3333333333333996
 50
0.0
 51
180.0
 73
     1
 72
     1
 10
184.3218566169696
 20
19.15390948356282
 11
184.3218566169696
 21
15.84737070168959
 72
     2
 10
184.655189950303
 20
15.84737070168959
 40
0.3333333333333997
 50
180.0
 51
360.0
 73
     1
 72
     1
 10
184.9885232836365
 20
15.84737070168959
 11
184.9885232836365
 21
19.15390948356282
 97
        4
330
157
330
158
330
159
330
15A
 75
     0
 76
     1
 98
        1
 10
0.0
 20
0.0
  0
LINE
  5
15C
102
{ACAD_REACTORS
330
163
102
}
330
154
100
AcDbEntity
  8
0
100
AcDbLine
 10
188.4894939320861
 20
14.02010125116808
 30
0.0
 11
186.3218576257727
 21
15.27066065865696
 31
0.0
  0
ARC
  5
15D
102
{ACAD_REACTORS
330
163
102
}
330
154
100
AcDbEntity
  8
0
100
AcDbCircle
 10
188.3229197809228
 20
13.73137272248517
 30
0.0
 40
0.333333333333396
100
AcDbArc
 50
240.0183606311473
 51
60.01836063114733
  0
LINE
  5
15E
102
{ACAD_REACTORS
330
163
102
}
330
154
100
AcDbEntity
  8
0
100
AcDbLine
 10
185.9887104250881
 20
14.69320296572853
 30
0.0
 11
188.1563456297596
 21
13.44264419380229
 31
0.0
  0
ARC
  5
15F
102
{ACAD_REACTORS
330
163
102
}
330
154
100
AcDbEntity
  8
0
100
AcDbCircle
 10
186.3218598278342
 20
15.27066193048824
 30
0.0
 40
0.6666688687282916
100
AcDbArc
 50
180.0
 51
240.0183606311454
  0
LINE
  5
160
102
{ACAD_REACTORS
330
163
102
}
330
154
100
AcDbEntity
  8
0
100
AcDbLine
 10
185.6551909591059
 20
19.94397836659928
 30
0.0
 11
185.6551909591059
 21
15.27066193048824
 31
0.0
  0
ARC
  5
161
102
{ACAD_REACTORS
330
163
102
}
330
154
100
AcDbEntity
  8
0
100
AcDbCircle
 10
185.9885242924393
 20
19.94397836659928
 30
0.0
 40
0.333333333333396
100
AcDbArc
 50
0.0
 51
180.0
  0
LINE
  5
162
102
{ACAD_REACTORS
330
163
102
}
330
154
100
AcDbEntity
  8
0
100
AcDbLine
 10
186.3218576257727
 20
15.27066065865696
 30
0.0
 11
186.3218576257727
 21
19.94397836659928
 31
0.0
  0
HATCH
  5
163
330
154
100
AcDbEntity
  8
Schraffur
 62
     7
100
AcDbHatch
 10
0.0
 20
0.0
 30
0.0
210
0.0
220
0.0
230
1.0
  2
SOLID
 70
     1
 71
     1
 91
        1
 92
        1
 93
        7
 72
     1
 10
188.4894939320861
 20
14.02010125116808
 11
186.3218576257727
 21
15.27066065865696
 72
     1
 10
186.3218576257727
 20
15.27066065865696
 11
186.3218576257727
 21
19.94397836659928
 72
     2
 10
185.9885242924393
 20
19.94397836659928
 40
0.333333333333396
 50
0.0
 51
180.0
 73
     1
 72
     1
 10
185.6551909591059
 20
19.94397836659928
 11
185.6551909591059
 21
15.27066193048824
 72
     2
 10
186.3218598278342
 20
15.27066193048824
 40
0.6666688687282916
 50
180.0
 51
240.0183606311454
 73
     1
 72
     1
 10
185.9887104250881
 20
14.69320296572853
 11
188.1563456297596
 21
13.44264419380229
 72
     2
 10
188.3229197809228
 20
13.73137272248517
 40
0.333333333333396
 50
240.0183606311473
 51
420.0183606311473
 73
     1
 97
        7
330
15C
330
162
330
161
330
160
330
15F
330
15E
330
15D
 75
     0
 76
     1
 98
        1
 10
0.0
 20
0.0
  0
LINE
  5
164
102
{ACAD_REACTORS
330
171
102
}
330
154
100
AcDbEntity
  8
0
100
AcDbLine
 10
188.655189950303
 20
18.85482345606895
 30
0.0
 11
187.4829623801859
 21
20.88518116554469
 31
0.0
  0
LINE
  5
165
102
{ACAD_REACTORS
330
171
102
}
330
154
100
AcDbEntity
  8
0
100
AcDbLine
 10
189.82741752042
 20
20.88518116554469
 30
0.0
 11
188.655189950303
 21
18.85482345606895
 31
0.0
  0
ARC
  5
166
102
{ACAD_REACTORS
330
171
102
}
330
154
100
AcDbEntity
  8
0
100
AcDbCircle
 10
190.0568849915682
 20
20.75269805930704
 30
0.0
 40
0.2649662124752865
100
AcDbArc
 50
0.0
 51
149.9999999999939
  0
LINE
  5
167
102
{ACAD_REACTORS
330
171
102
}
330
154
100
AcDbEntity
  8
0
100
AcDbLine
 10
190.3218512040435
 20
14.28806850858179
 30
0.0
 11
190.3218512040435
 21
20.75269805930705
 31
0.0
  0
ARC
  5
168
102
{ACAD_REACTORS
330
171
102
}
330
154
100
AcDbEntity
  8
0
100
AcDbCircle
 10
189.98851787071
 20
14.28806850858179
 30
0.0
 40
0.3333333333334023
100
AcDbArc
 50
180.0
 51
0.0
  0
LINE
  5
169
102
{ACAD_REACTORS
330
171
102
}
330
154
100
AcDbEntity
  8
0
100
AcDbLine
 10
189.6551845373767
 20
19.25353601487275
 30
0.0
 11
189.6551845373766
 21
14.28806850858179
 31
0.0
  0
LINE
  5
16A
102
{ACAD_REACTORS
330
171
102
}
330
154
100
AcDbEntity
  8
0
100
AcDbLine
 10
188.7995275176003
 20
17.77149458276708
 30
0.0
 11
189.6551845373767
 21
19.25353601487275
 31
0.0
  0
ARC
  5
16B
102
{ACAD_REACTORS
330
171
102
}
330
154
100
AcDbEntity
  8
0
100
AcDbCircle
 10
188.655189950303
 20
17.85482791610036
 30
0.0
 40
0.1666666666665381
100
AcDbArc
 50
209.9999999999992
 51
330.0000000000008
  0
LINE
  5
16C
102
{ACAD_REACTORS
330
171
102
}
330
154
100
AcDbEntity
  8
0
100
AcDbLine
 10
187.6551953632293
 20
19.25353601487277
 30
0.0
 11
188.5108523830057
 21
17.77149458276708
 31
0.0
  0
LINE
  5
16D
102
{ACAD_REACTORS
330
171
102
}
330
154
100
AcDbEntity
  8
0
100
AcDbLine
 10
187.6551953632293
 20
15.84737070168959
 30
0.0
 11
187.6551953632293
 21
19.25353601487277
 31
0.0
  0
ARC
  5
16E
102
{ACAD_REACTORS
330
171
102
}
330
154
100
AcDbEntity
  8
0
100
AcDbCircle
 10
187.3218620298959
 20
15.84737070168959
 30
0.0
 40
0.333333333333396
100
AcDbArc
 50
180.0
 51
0.0
  0
LINE
  5
16F
102
{ACAD_REACTORS
330
171
102
}
330
154
100
AcDbEntity
  8
0
100
AcDbLine
 10
186.9885286965624
 20
20.75269805930705
 30
0.0
 11
186.9885286965624
 21
15.84737070168959
 31
0.0
  0
ARC
  5
170
102
{ACAD_REACTORS
330
171
102
}
330
154
100
AcDbEntity
  8
0
100
AcDbCircle
 10
187.2534949090378
 20
20.75269805930705
 30
0.0
 40
0.2649662124752854
100
AcDbArc
 50
29.9999999999981
 51
180.0
  0
HATCH
  5
171
330
154
100
AcDbEntity
  8
Schraffur
 62
     7
100
AcDbHatch
 10
0.0
 20
0.0
 30
0.0
210
0.0
220
0.0
230
1.0
  2
SOLID
 70
     1
 71
     1
 91
        1
 92
        1
 93
       13
 72
     1
 10
188.655189950303
 20
18.85482345606895
 11
187.4829623801859
 21
20.88518116554469
 72
     2
 10
187.2534949090378
 20
20.75269805930705
 40
0.2649662124752854
 50
29.9999999999981
 51
180.0
 73
     1
 72
     1
 10
186.9885286965624
 20
20.75269805930705
 11
186.9885286965624
 21
15.84737070168959
 72
     2
 10
187.3218620298959
 20
15.84737070168959
 40
0.333333333333396
 50
180.0
 51
360.0
 73
     1
 72
     1
 10
187.6551953632293
 20
15.84737070168959
 11
187.6551953632293
 21
19.25353601487277
 72
     1
 10
187.6551953632293
 20
19.25353601487277
 11
188.5108523830057
 21
17.77149458276708
 72
     2
 10
188.655189950303
 20
17.85482791610036
 40
0.1666666666665381
 50
209.9999999999992
 51
330.0000000000008
 73
     1
 72
     1
 10
188.7995275176003
 20
17.77149458276708
 11
189.6551845373767
 21
19.25353601487275
 72
     1
 10
189.6551845373767
 20
19.25353601487275
 11
189.6551845373766
 21
14.28806850858179
 72
     2
 10
189.98851787071
 20
14.28806850858179
 40
0.3333333333334023
 50
180.0
 51
360.0
 73
     1
 72
     1
 10
190.3218512040435
 20
14.28806850858179
 11
190.3218512040435
 21
20.75269805930705
 72
     2
 10
190.0568849915682
 20
20.75269805930704
 40
0.2649662124752865
 50
0.0
 51
149.9999999999939
 73
     1
 72
     1
 10
189.82741752042
 20
20.88518116554469
 11
188.655189950303
 21
18.85482345606894
 97
       13
330
164
330
170
330
16F
330
16E
330
16D
330
16C
330
16B
330
16A
330
169
330
168
330
167
330
166
330
165
 75
     0
 76
     1
 98
        1
 10
0.0
 20
0.0
  0
ARC
  5
172
102
{ACAD_REACTORS
330
180
102
}
330
154
100
AcDbEntity
  8
0
100
AcDbCircle
 10
192.6913083387628
 20
15.84737070168959
 30
10.0
 40
0.3333333333333919
100
AcDbArc
 50
299.9816393688529
 51
119.9816393688526
  0
LINE
  5
173
102
{ACAD_REACTORS
330
180
102
}
330
154
100
AcDbEntity
  8
0
100
AcDbLine
 10
191.6551889415001
 20
15.6344385114688
 30
10.0
 11
192.5247341875995
 21
16.13609923037247
 31
10.0
  0
LINE
  5
174
102
{ACAD_REACTORS
330
180
102
}
330
154
100
AcDbEntity
  8
0
100
AcDbLine
 10
191.6551889415001
 20
17.1673067592928
 30
10.0
 11
191.6551889415001
 21
15.6344385114688
 31
10.0
  0
LINE
  5
175
102
{ACAD_REACTORS
330
180
102
}
330
154
100
AcDbEntity
  8
0
100
AcDbLine
 10
192.6913083387628
 20
17.1673067592928
 30
10.0
 11
191.6551889415001
 21
17.1673067592928
 31
10.0
  0
ARC
  5
176
102
{ACAD_REACTORS
330
180
102
}
330
154
100
AcDbEntity
  8
0
100
AcDbCircle
 10
192.6913083387628
 20
17.5006400926262
 30
10.0
 40
0.333333333333396
100
AcDbArc
 50
270.0
 51
90.0
  0
LINE
  5
177
102
{ACAD_REACTORS
330
180
102
}
330
154
100
AcDbEntity
  8
0
100
AcDbLine
 10
191.6551889415001
 20
17.8339734259596
 30
10.0
 11
192.6913083387628
 21
17.8339734259596
 31
10.0
  0
LINE
  5
178
102
{ACAD_REACTORS
330
180
102
}
330
154
100
AcDbEntity
  8
0
100
AcDbLine
 10
191.6551889415001
 20
19.36684167378358
 30
10.0
 11
191.6551889415001
 21
17.8339734259596
 31
10.0
  0
LINE
  5
179
102
{ACAD_REACTORS
330
180
102
}
330
154
100
AcDbEntity
  8
0
100
AcDbLine
 10
192.5247341875995
 20
18.86518095487989
 30
10.0
 11
191.6551889415001
 21
19.36684167378358
 31
10.0
  0
ARC
  5
17A
102
{ACAD_REACTORS
330
180
102
}
330
154
100
AcDbEntity
  8
0
100
AcDbCircle
 10
192.6913083387628
 20
19.15390948356282
 30
10.0
 40
0.3333333333333963
100
AcDbArc
 50
240.0183606311407
 51
60.01835942372524
  0
LINE
  5
17B
102
{ACAD_REACTORS
330
180
102
}
330
154
100
AcDbEntity
  8
0
100
AcDbLine
 10
191.4884297593299
 20
20.23270689528218
 30
10.0
 11
192.857882489926
 21
19.44263801224573
 31
10.0
  0
ARC
  5
17C
102
{ACAD_REACTORS
330
180
102
}
330
154
100
AcDbEntity
  8
0
100
AcDbCircle
 10
191.3218556081666
 20
19.94397836659928
 30
10.0
 40
0.333333333333396
100
AcDbArc
 50
60.01836063114071
 51
180.0
  0
LINE
  5
17D
102
{ACAD_REACTORS
330
180
102
}
330
154
100
AcDbEntity
  8
0
100
AcDbLine
 10
190.9885222748332
 20
15.05730181865312
 30
10.0
 11
190.9885222748332
 21
19.94397836659928
 31
10.0
  0
ARC
  5
17E
102
{ACAD_REACTORS
330
180
102
}
330
154
100
AcDbEntity
  8
0
100
AcDbCircle
 10
191.3218556081666
 20
15.05730181865312
 30
10.0
 40
0.333333333333396
100
AcDbArc
 50
180.0
 51
299.9816393688593
  0
LINE
  5
17F
102
{ACAD_REACTORS
330
180
102
}
330
154
100
AcDbEntity
  8
0
100
AcDbLine
 10
192.857882489926
 20
15.55864217300668
 30
10.0
 11
191.4884297593299
 21
14.7685732899702
 31
10.0
  0
HATCH
  5
180
330
154
100
AcDbEntity
  8
Schraffur
 62
     7
100
AcDbHatch
 10
0.0
 20
0.0
 30
0.0
210
0.0
220
0.0
230
1.0
  2
SOLID
 70
     1
 71
     1
 91
        1
 92
        1
 93
       14
 72
     2
 10
192.6913083387628
 20
15.84737070168959
 40
0.3333333333333919
 50
299.9816393688529
 51
479.9816393688526
 73
     1
 72
     1
 10
192.5247341875995
 20
16.13609923037247
 11
191.6551889415001
 21
15.63443851146881
 72
     1
 10
191.6551889415001
 20
15.6344385114688
 11
191.6551889415001
 21
17.1673067592928
 72
     1
 10
191.6551889415001
 20
17.1673067592928
 11
192.6913083387628
 21
17.1673067592928
 72
     2
 10
192.6913083387628
 20
17.5006400926262
 40
0.333333333333396
 50
270.0
 51
450.0
 73
     1
 72
     1
 10
192.6913083387628
 20
17.8339734259596
 11
191.6551889415001
 21
17.8339734259596
 72
     1
 10
191.6551889415001
 20
17.8339734259596
 11
191.6551889415001
 21
19.36684167378358
 72
     1
 10
191.6551889415001
 20
19.36684167378358
 11
192.5247341875995
 21
18.86518095487989
 72
     2
 10
192.6913083387628
 20
19.15390948356282
 40
0.3333333333333963
 50
240.0183606311407
 51
420.0183594237252
 73
     1
 72
     1
 10
192.857882489926
 20
19.44263801224573
 11
191.4884297593299
 21
20.23270689528218
 72
     2
 10
191.3218556081666
 20
19.94397836659928
 40
0.333333333333396
 50
60.01836063114071
 51
180.0
 73
     1
 72
     1
 10
190.9885222748332
 20
19.94397836659928
 11
190.9885222748332
 21
15.05730181865312
 72
     2
 10
191.3218556081666
 20
15.05730181865312
 40
0.333333333333396
 50
180.0
 51
299.9816393688593
 73
     1
 72
     1
 10
191.4884297593299
 20
14.7685732899702
 11
192.857882489926
 21
15.55864217300668
 97
       14
330
172
330
173
330
174
330
175
330
176
330
177
330
178
330
179
330
17A
330
17B
330
17C
330
17D
330
17E
330
17F
 75
     0
 76
     1
 98
        1
 10
0.0
 20
0.0
  0
LINE
  5
181
330
154
100
AcDbEntity
  8
Skizziergeometrie(ISO)
100
AcDbLine
 10
19.98018995030303
 20
45.0006400926262
 30
0.0
 11
199.980189950303
 21
45.0006400926262
 31
0.0
  0
LINE
  5
182
330
154
100
AcDbEntity
  8
Skizziergeometrie(ISO)
100
AcDbLine
 10
19.98018995030303
 20
40.0006400926262
 30
0.0
 11
199.980189950303
 21
40.0006400926262
 31
0.0
  0
LINE
  5
183
330
154
100
AcDbEntity
  8
Skizziergeometrie(ISO)
100
AcDbLine
 10
19.98018995030303
 20
35.00064009262621
 30
0.0
 11
199.980189950303
 21
35.00064009262621
 31
0.0
  0
LINE
  5
184
330
154
100
AcDbEntity
  8
Skizziergeometrie(ISO)
100
AcDbLine
 10
19.98018995030303
 20
30.00064009262621
 30
0.0
 11
199.980189950303
 21
30.00064009262621
 31
0.0
  0
LINE
  5
185
330
154
100
AcDbEntity
  8
Skizziergeometrie(ISO)
100
AcDbLine
 10
19.98018995030303
 20
25.00064009262621
 30
0.0
 11
199.980189950303
 21
25.00064009262621
 31
0.0
  0
LINE
  5
186
330
154
100
AcDbEntity
  8
Skizziergeometrie(ISO)
100
AcDbLine
 10
19.98018995030303
 20
17.5006400926262
 30
0.0
 11
49.98018995030306
 21
17.5006400926262
 31
0.0
  0
LINE
  5
187
330
154
100
AcDbEntity
  8
Skizziergeometrie(ISO)
100
AcDbLine
 10
26.98018995030303
 20
45.0006400926262
 30
0.0
 11
26.98018995030303
 21
25.00064009262621
 31
0.0
  0
LINE
  5
188
330
154
100
AcDbEntity
  8
Skizziergeometrie(ISO)
100
AcDbLine
 10
44.98018995030303
 20
45.0006400926262
 30
0.0
 11
44.98018995030303
 21
25.00064009262621
 31
0.0
  0
LINE
  5
189
330
154
100
AcDbEntity
  8
Skizziergeometrie(ISO)
100
AcDbLine
 10
49.98018995030306
 20
10.0006400926262
 30
0.0
 11
49.98018995030306
 21
25.00064009262621
 31
0.0
  0
LINE
  5
18A
330
154
100
AcDbEntity
  8
Skizziergeometrie(ISO)
100
AcDbLine
 10
159.980189950303
 20
25.00064009262621
 30
0.0
 11
159.980189950303
 21
10.0006400926262
 31
0.0
  0
LINE
  5
18B
330
154
100
AcDbEntity
  8
Skizziergeometrie(ISO)
100
AcDbLine
 10
177.3301899503031
 20
25.0006400926262
 30
0.0
 11
177.3301899503031
 21
10.0006400926262
 31
0.0
  0
LINE
  5
18C
330
154
100
AcDbEntity
  8
Skizziergeometrie(ISO)
100
AcDbLine
 10
190.9885222748332
 20
15.05730181865312
 30
0.0
 11
190.9885222748332
 21
19.94397836659928
 31
0.0
  0
LINE
  5
18D
330
154
100
AcDbEntity
  8
Skizziergeometrie(ISO)
100
AcDbLine
 10
192.857882489926
 20
15.55864217300668
 30
0.0
 11
191.4884297593299
 21
14.7685732899702
 31
0.0
  0
LINE
  5
18E
330
154
100
AcDbEntity
  8
Skizziergeometrie(ISO)
100
AcDbLine
 10
191.6551889415001
 20
15.6344385114688
 30
0.0
 11
192.5247341875995
 21
16.13609923037247
 31
0.0
  0
LINE
  5
18F
330
154
100
AcDbEntity
  8
Skizziergeometrie(ISO)
100
AcDbLine
 10
191.6551889415001
 20
17.1673067592928
 30
0.0
 11
191.6551889415001
 21
15.6344385114688
 31
0.0
  0
LINE
  5
190
330
154
100
AcDbEntity
  8
Skizziergeometrie(ISO)
100
AcDbLine
 10
192.6913083387628
 20
17.1673067592928
 30
0.0
 11
191.6551889415001
 21
17.1673067592928
 31
0.0
  0
LINE
  5
191
330
154
100
AcDbEntity
  8
Skizziergeometrie(ISO)
100
AcDbLine
 10
191.6551889415001
 20
17.8339734259596
 30
0.0
 11
192.6913083387628
 21
17.8339734259596
 31
0.0
  0
LINE
  5
192
330
154
100
AcDbEntity
  8
Skizziergeometrie(ISO)
100
AcDbLine
 10
191.6551889415001
 20
19.36684167378358
 30
0.0
 11
191.6551889415001
 21
17.8339734259596
 31
0.0
  0
LINE
  5
193
330
154
100
AcDbEntity
  8
Skizziergeometrie(ISO)
100
AcDbLine
 10
192.5247341875995
 20
18.86518095487989
 30
0.0
 11
191.6551889415001
 21
19.36684167378358
 31
0.0
  0
LINE
  5
194
330
154
100
AcDbEntity
  8
Skizziergeometrie(ISO)
100
AcDbLine
 10
191.4884297593299
 20
20.23270689528218
 30
0.0
 11
192.857882489926
 21
19.44263801224573
 31
0.0
  0
LINE
  5
195
330
154
100
AcDbEntity
  8
Skizziergeometrie(ISO)
100
AcDbLine
 10
184.3218566169696
 20
15.84737070168959
 30
0.0
 11
184.3218566169696
 21
19.15390948356282
 31
0.0
  0
LINE
  5
196
330
154
100
AcDbEntity
  8
Skizziergeometrie(ISO)
100
AcDbLine
 10
184.9885232836365
 20
19.15390948356282
 30
0.0
 11
184.9885232836365
 21
15.84737070168959
 31
0.0
  0
LINE
  5
197
330
154
100
AcDbEntity
  8
Skizziergeometrie(ISO)
100
AcDbLine
 10
188.1563456297596
 20
13.44264419380229
 30
0.0
 11
185.9887104250881
 21
14.69320296572853
 31
0.0
  0
LINE
  5
198
330
154
100
AcDbEntity
  8
Skizziergeometrie(ISO)
100
AcDbLine
 10
186.3218576257727
 20
15.27066065865696
 30
0.0
 11
188.4894939320861
 21
14.02010125116808
 31
0.0
  0
LINE
  5
199
330
154
100
AcDbEntity
  8
Skizziergeometrie(ISO)
100
AcDbLine
 10
186.3218576257727
 20
19.94397836659928
 30
0.0
 11
186.3218576257727
 21
15.27066065865696
 31
0.0
  0
LINE
  5
19A
330
154
100
AcDbEntity
  8
Skizziergeometrie(ISO)
100
AcDbLine
 10
185.6551909591059
 20
15.27066193048824
 30
0.0
 11
185.6551909591059
 21
19.94397836659928
 31
0.0
  0
LINE
  5
19B
330
154
100
AcDbEntity
  8
Skizziergeometrie(ISO)
100
AcDbLine
 10
189.82741752042
 20
20.88518116554469
 30
0.0
 11
188.655189950303
 21
18.85482345606895
 31
0.0
  0
LINE
  5
19C
330
154
100
AcDbEntity
  8
Skizziergeometrie(ISO)
100
AcDbLine
 10
190.3218512040435
 20
14.28806850858179
 30
0.0
 11
190.3218512040435
 21
20.75269805930705
 31
0.0
  0
LINE
  5
19D
330
154
100
AcDbEntity
  8
Skizziergeometrie(ISO)
100
AcDbLine
 10
187.4829623801859
 20
20.88518116554469
 30
0.0
 11
188.655189950303
 21
18.85482345606895
 31
0.0
  0
LINE
  5
19E
330
154
100
AcDbEntity
  8
Skizziergeometrie(ISO)
100
AcDbLine
 10
186.9885286965624
 20
15.84737070168959
 30
0.0
 11
186.9885286965624
 21
20.75269805930705
 31
0.0
  0
LINE
  5
19F
330
154
100
AcDbEntity
  8
Skizziergeometrie(ISO)
100
AcDbLine
 10
188.655189950303
 20
12.50064009262539
 30
0.0
 11
180.2387546751623
 21
17.35627582828491
 31
0.0
  0
LINE
  5
1A0
330
154
100
AcDbEntity
  8
Skizziergeometrie(ISO)
100
AcDbLine
 10
197.0716252254436
 20
17.35627582828489
 30
0.0
 11
188.655189950303
 21
12.50064009262539
 31
0.0
  0
LINE
  5
1A1
330
154
100
AcDbEntity
  8
Skizziergeometrie(ISO)
100
AcDbLine
 10
188.655189950303
 20
22.50064009262702
 30
0.0
 11
197.0716252254436
 21
17.6450043569675
 31
0.0
  0
LINE
  5
1A2
330
154
100
AcDbEntity
  8
Skizziergeometrie(ISO)
100
AcDbLine
 10
180.2387546751623
 20
17.6450043569675
 30
0.0
 11
188.655189950303
 21
22.50064009262702
 31
0.0
  0
LINE
  5
1A3
330
154
100
AcDbEntity
  8
Skizziergeometrie(ISO)
100
AcDbLine
 10
187.6551953632293
 20
19.25353601487277
 30
0.0
 11
187.6551953632293
 21
15.84737070168959
 31
0.0
  0
LINE
  5
1A4
330
154
100
AcDbEntity
  8
Skizziergeometrie(ISO)
100
AcDbLine
 10
188.5108523830057
 20
17.77149458276708
 30
0.0
 11
187.6551953632293
 21
19.25353601487277
 31
0.0
  0
LINE
  5
1A5
330
154
100
AcDbEntity
  8
Skizziergeometrie(ISO)
100
AcDbLine
 10
189.6551845373767
 20
19.25353601487275
 30
0.0
 11
188.7995275176003
 21
17.77149458276708
 31
0.0
  0
LINE
  5
1A6
330
154
100
AcDbEntity
  8
Skizziergeometrie(ISO)
100
AcDbLine
 10
189.6551845373766
 20
14.28806850858179
 30
0.0
 11
189.6551845373767
 21
19.25353601487275
 31
0.0
  0
ARC
  5
1A7
330
154
100
AcDbEntity
  8
Skizziergeometrie(ISO)
100
AcDbCircle
 10
192.6913083387628
 20
15.84737070168959
 30
0.0
 40
0.3333333333333919
100
AcDbArc
 50
299.9816393688527
 51
119.98163936886
  0
ARC
  5
1A8
330
154
100
AcDbEntity
  8
Skizziergeometrie(ISO)
100
AcDbCircle
 10
192.6913083387628
 20
17.5006400926262
 30
0.0
 40
0.333333333333396
100
AcDbArc
 50
270.0
 51
90.0
  0
ARC
  5
1A9
330
154
100
AcDbEntity
  8
Skizziergeometrie(ISO)
100
AcDbCircle
 10
192.6913083387628
 20
19.15390948356282
 30
0.0
 40
0.3333333333333963
100
AcDbArc
 50
240.0183606311413
 51
60.01836063114108
  0
ARC
  5
1AA
330
154
100
AcDbEntity
  8
Skizziergeometrie(ISO)
100
AcDbCircle
 10
184.655189950303
 20
15.84737070168959
 30
0.0
 40
0.3333333333333997
100
AcDbArc
 50
180.0
 51
0.0
  0
ARC
  5
1AB
330
154
100
AcDbEntity
  8
Skizziergeometrie(ISO)
100
AcDbCircle
 10
184.655189950303
 20
19.15390948356282
 30
0.0
 40
0.3333333333333996
100
AcDbArc
 50
0.0
 51
180.0
  0
ARC
  5
1AC
330
154
100
AcDbEntity
  8
Skizziergeometrie(ISO)
100
AcDbCircle
 10
188.3229197809228
 20
13.73137272248517
 30
0.0
 40
0.333333333333396
100
AcDbArc
 50
240.0183606311468
 51
60.01836063114108
  0
ARC
  5
1AD
330
154
100
AcDbEntity
  8
Skizziergeometrie(ISO)
100
AcDbCircle
 10
185.9885242924393
 20
19.94397836659928
 30
0.0
 40
0.333333333333396
100
AcDbArc
 50
0.0
 51
180.0
  0
ARC
  5
1AE
330
154
100
AcDbEntity
  8
Skizziergeometrie(ISO)
100
AcDbCircle
 10
190.0568849915682
 20
20.75269805930704
 30
0.0
 40
0.2649662124752865
100
AcDbArc
 50
0.0
 51
149.9999999999956
  0
ARC
  5
1AF
330
154
100
AcDbEntity
  8
Skizziergeometrie(ISO)
100
AcDbCircle
 10
189.98851787071
 20
14.28806850858179
 30
0.0
 40
0.3333333333334023
100
AcDbArc
 50
180.0
 51
0.0
  0
ARC
  5
1B0
330
154
100
AcDbEntity
  8
Skizziergeometrie(ISO)
100
AcDbCircle
 10
187.3218620298959
 20
15.84737070168959
 30
0.0
 40
0.333333333333396
100
AcDbArc
 50
180.0
 51
0.0
  0
ARC
  5
1B1
330
154
100
AcDbEntity
  8
Skizziergeometrie(ISO)
100
AcDbCircle
 10
187.2534949090378
 20
20.75269805930705
 30
0.0
 40
0.2649662124752854
100
AcDbArc
 50
29.99999999999976
 51
180.0
  0
ARC
  5
1B2
330
154
100
AcDbEntity
  8
Skizziergeometrie(ISO)
100
AcDbCircle
 10
191.3218556081666
 20
15.05730181865312
 30
0.0
 40
0.333333333333396
100
AcDbArc
 50
180.0
 51
299.9816393688587
  0
ARC
  5
1B3
330
154
100
AcDbEntity
  8
Skizziergeometrie(ISO)
100
AcDbCircle
 10
191.3218556081666
 20
19.94397836659928
 30
0.0
 40
0.333333333333396
100
AcDbArc
 50
60.01836063114071
 51
180.0
  0
ARC
  5
1B4
330
154
100
AcDbEntity
  8
Skizziergeometrie(ISO)
100
AcDbCircle
 10
196.9883381498621
 20
17.5006400926262
 30
0.0
 40
0.1666666666665381
100
AcDbArc
 50
299.9816393688627
 51
60.01836063115012
  0
ARC
  5
1B5
330
154
100
AcDbEntity
  8
Skizziergeometrie(ISO)
100
AcDbCircle
 10
180.3220417507439
 20
17.5006400926262
 30
0.0
 40
0.1666666666665381
100
AcDbArc
 50
119.9816393688498
 51
240.0183606311497
  0
ARC
  5
1B6
330
154
100
AcDbEntity
  8
Skizziergeometrie(ISO)
100
AcDbCircle
 10
186.3218598278342
 20
15.27066193048824
 30
0.0
 40
0.6666688687282916
100
AcDbArc
 50
180.0
 51
240.0183606311453
  0
ARC
  5
1B7
330
154
100
AcDbEntity
  8
Skizziergeometrie(ISO)
100
AcDbCircle
 10
188.655189950303
 20
17.85482791610036
 30
0.0
 40
0.1666666666665381
100
AcDbArc
 50
209.9999999999999
 51
330.0000000000001
  0
LINE
  5
1B8
330
154
100
AcDbEntity
  8
Skizzierlinie(TC_020513_DIN)
100
AcDbLine
 10
20.98018995030303
 20
25.00064009262621
 30
0.0
 11
20.98018995030303
 21
17.5006400926262
 31
0.0
  0
LINE
  5
1B9
330
154
100
AcDbEntity
  8
Skizzierlinie(TC_020513_DIN)
100
AcDbLine
 10
20.98018995030303
 20
17.5006400926262
 30
0.0
 11
20.980189950303
 21
10.0006400926262
 31
0.0
  0
LINE
  5
1BA
330
154
100
AcDbEntity
  8
Skizzierlinie(TC_020513_DIN)
100
AcDbLine
 10
49.98018995030306
 20
25.00064009262621
 30
0.0
 11
29.98018995030301
 21
17.5006400926262
 31
0.0
  0
LINE
  5
1BB
330
154
100
AcDbEntity
  8
Skizzierlinie(TC_020513_DIN)
100
AcDbLine
 10
177.3301899503031
 20
25.0006400926262
 30
0.0
 11
159.980189950303
 21
20.0006400926262
 31
0.0
  0
LINE
  5
1BC
330
154
100
AcDbEntity
  8
Skizzierlinie(TC_020513_DIN)
100
AcDbLine
 10
159.980189950303
 20
20.0006400926262
 30
0.0
 11
177.3301899503031
 21
10.0006400926262
 31
0.0
  0
LINE
  5
1BD
330
154
100
AcDbEntity
  8
Skizziergeometrie(ISO)
100
AcDbLine
 10
19.98018995030303
 20
45.0006400926262
 30
0.0
 11
19.98018995030303
 21
10.0006400926262
 31
0.0
  0
LINE
  5
1BE
330
154
100
AcDbEntity
  8
Skizzierlinie(TC_020513_DIN)
100
AcDbLine
 10
50.98018995030301
 20
25.00064009262621
 30
0.0
 11
50.98018995030301
 21
17.5006400926262
 31
0.0
  0
LINE
  5
1BF
330
154
100
AcDbEntity
  8
Skizzierlinie(TC_020513_DIN)
100
AcDbLine
 10
50.98018995030301
 20
17.5006400926262
 30
0.0
 11
50.98018995030301
 21
10.0006400926262
 31
0.0
  0
MTEXT
  5
1C0
330
154
100
AcDbEntity
  8
Symbole(ISO)
 62
     7
100
AcDbMText
 10
20.98018995030303
 20
21.2506400926262
 30
0.0
 40
2.5
 41
8.997516465920178
 71
     4
 72
     1
  1
 Date
  7
TC 2_5 mm
 73
     1
 44
1.0
1001
ACAD
1000
MTEXTBEGIN
1070
    73
1070
     1
1070
    44
1040
1.0
1070
    74
1070
     0
1000
MTEXTEND
  0
MTEXT
  5
1C1
330
154
100
AcDbEntity
  8
Symbole(ISO)
 62
     7
100
AcDbMText
 10
20.980189950303
 20
13.7506400926262
 30
0.0
 40
2.5
 41
8.970966064125889
 71
     4
 72
     1
  1
 Sign.
  7
TC 2_5 mm
 73
     1
 44
1.0
1001
ACAD
1000
MTEXTBEGIN
1070
    73
1070
     1
1070
    44
1040
1.0
1070
    74
1070
     0
1000
MTEXTEND
  0
MTEXT
  5
1C2
330
154
100
AcDbEntity
  8
Symbole(ISO)
 62
     7
100
AcDbMText
 10
168.655189950303
 20
22.5006400926262
 30
0.0
 40
2.5
 41
17.34061856478945
 71
     5
 72
     1
  1
Scale
  7
TC 2_5 mm
 73
     1
 44
1.0
1001
ACAD
1000
MTEXTBEGIN
1070
    73
1070
     1
1070
    44
1040
1.0
1070
    74
1070
     0
1000
MTEXTEND
  0
MTEXT
  5
1C3
330
154
100
AcDbEntity
  8
Symbole(ISO)
 62
     7
100
AcDbMText
 10
39.98018995030301
 20
21.2506400926262
 30
0.0
 40
3.499999940395355
 41
20.95325017112982
 71
     5
 72
     1
  1
14.12.2006
  7
TC 3_5 mm
 73
     1
 44
1.0
1001
ACAD
1000
MTEXTBEGIN
1070
    73
1070
     1
1070
    44
1040
1.0
1070
    74
1070
     0
1000
MTEXTEND
  0
ATTDEF
  5
1C4
330
154
100
AcDbEntity
  8
Symbole(ISO)
 62
     7
100
AcDbText
 10
50.98018995030301
 20
11.75064006282388
 30
0.0
 40
4.000000059604644
  1
surface mount.h. 1l+cover 2xPG36 180°C
  7
Kopie von TC 5 mm
 11
50.98018995030301
 21
13.7506400926262
 31
0.0
100
AcDbAttributeDefinition
  3
BEZEICHNUNG
  2
BEZEICHNUNG
 70
     0
 74
     2
  0
ATTDEF
  5
1C5
330
154
100
AcDbEntity
  8
Symbole(ISO)
 62
     7
100
AcDbText
 10
164.2856470919772
 20
12.5006400926262
 30
0.0
 40
5.0
  1
1:2
 41
0.899999976158142
  7
TC 5 mm
 72
     1
 11
168.655189950303
 21
15.0006400926262
 31
0.0
100
AcDbAttributeDefinition
  3
FirstViewScale
  2
FirstViewScale
 70
     0
 74
     2
  0
ATTDEF
  5
1C6
330
154
100
AcDbEntity
  8
Symbole(ISO)
 62
     7
100
AcDbText
 10
50.98018995030301
 20
19.25064006282388
 30
0.0
 40
4.000000059604644
  1
CHPR 48 LS
 41
1.199999928474426
  7
Kopie von TC 5 mm
 11
50.98018995030301
 21
21.2506400926262
 31
0.0
100
AcDbAttributeDefinition
  3
BAUTEILNUMMER
  2
BAUTEILNUMMER
 70
     0
 74
     2
  0
ENDBLK
  5
156
330
154
100
AcDbEntity
  8
0
100
AcDbBlockEnd
  0
BLOCK
  5
634
330
629
100
AcDbEntity
  8
0
100
AcDbBlockBegin
  2
*D11
 70
     1
 10
0.0
 20
0.0
 30
0.0
  3
*D11
  1

  0
LINE
  5
6E4
330
629
100
AcDbEntity
  8
Bemaßungen(TC_020513_DIN)
  6
Continuous
 62
     7
370
    25
100
AcDbLine
 10
241.5901657893262
 20
200.5387704515286
 30
0.0
 11
263.5901657893263
 21
200.5387704515286
 31
0.0
  0
LINE
  5
6E5
330
629
100
AcDbEntity
  8
Bemaßungen(TC_020513_DIN)
  6
Continuous
 62
     7
370
    25
100
AcDbLine
 10
241.5901657893262
 20
152.7347704515286
 30
0.0
 11
263.5901657893263
 21
152.7347704515286
 31
0.0
  0
LINE
  5
6E6
330
629
100
AcDbEntity
  8
Bemaßungen(TC_020513_DIN)
  6
Continuous
 62
     7
370
    25
100
AcDbLine
 10
259.5901657893262
 20
195.5387704515286
 30
0.0
 11
259.5901657893262
 21
157.7347704515286
 31
0.0
  0
SOLID
  5
6E7
330
629
100
AcDbEntity
  8
Bemaßungen(TC_020513_DIN)
  6
Continuous
 62
     7
100
AcDbTrace
 10
258.7568324559929
 20
195.5387704515286
 30
0.0
 11
260.4234991226596
 21
195.5387704515286
 31
0.0
 12
259.5901657893262
 22
200.5387704515286
 32
0.0
 13
259.5901657893262
 23
200.5387704515286
 33
0.0
  0
SOLID
  5
6E8
330
629
100
AcDbEntity
  8
Bemaßungen(TC_020513_DIN)
  6
Continuous
 62
     7
100
AcDbTrace
 10
258.7568324559929
 20
157.7347704515286
 30
0.0
 11
260.4234991226596
 21
157.7347704515286
 31
0.0
 12
259.5901657893262
 22
152.7347704515286
 32
0.0
 13
259.5901657893262
 23
152.7347704515286
 33
0.0
  0
MTEXT
  5
6E9
330
629
100
AcDbEntity
  8
Bemaßungen(TC_020513_DIN)
  6
Continuous
 62
     7
370
    25
100
AcDbMText
 10
249.57679607582
 20
167.3973434392503
 30
0.0
 40
7.0
 41
0.0
 71
     1
 72
     1
  1
\A1;47,8
  7
Aktuell-BSI
 11
0.0000000000000001
 21
1.0
 31
0.0
 73
     1
 44
1.0
1001
ACAD
1000
MTEXTBEGIN
1070
    73
1070
     1
1070
    44
1040
1.0
1070
    74
1070
     0
1000
MTEXTEND
  0
POINT
  5
6EA
330
629
100
AcDbEntity
  8
Defpoints
  6
Continuous
 62
     0
100
AcDbPoint
 10
239.5901657893262
 20
200.5387704515286
 30
0.0
  0
POINT
  5
6EB
330
629
100
AcDbEntity
  8
Defpoints
  6
Continuous
 62
     0
100
AcDbPoint
 10
239.5901657893262
 20
152.7347704515286
 30
0.0
  0
POINT
  5
6EC
330
629
100
AcDbEntity
  8
Defpoints
  6
Continuous
 62
     0
100
AcDbPoint
 10
259.5901657893262
 20
152.7347704515286
 30
0.0
  0
ENDBLK
  5
635
330
629
100
AcDbEntity
  8
0
100
AcDbBlockEnd
  0
BLOCK
  5
6F9
330
6EE
100
AcDbEntity
  8
0
100
AcDbBlockBegin
  2
*D12
 70
     1
 10
0.0
 20
0.0
 30
0.0
  3
*D12
  1

  0
LINE
  5
7A9
330
6EE
100
AcDbEntity
  8
Bemaßungen(TC_020513_DIN)
  6
Continuous
 62
     7
370
    25
100
AcDbLine
 10
103.0901657893261
 20
200.5387704515286
 30
0.0
 11
69.09016578932619
 21
200.5387704515286
 31
0.0
  0
LINE
  5
7AA
330
6EE
100
AcDbEntity
  8
Bemaßungen(TC_020513_DIN)
  6
Continuous
 62
     7
370
    25
100
AcDbLine
 10
103.0901657893261
 20
152.7347704515286
 30
0.0
 11
69.09016578932618
 21
152.7347704515286
 31
0.0
  0
LINE
  5
7AB
330
6EE
100
AcDbEntity
  8
Bemaßungen(TC_020513_DIN)
  6
Continuous
 62
     7
370
    25
100
AcDbLine
 10
73.09016578932619
 20
195.5387704515286
 30
0.0
 11
73.09016578932618
 21
157.7347704515286
 31
0.0
  0
SOLID
  5
7AC
330
6EE
100
AcDbEntity
  8
Bemaßungen(TC_020513_DIN)
  6
Continuous
 62
     7
100
AcDbTrace
 10
72.25683245599286
 20
195.5387704515286
 30
0.0
 11
73.92349912265952
 21
195.5387704515286
 31
0.0
 12
73.09016578932619
 22
200.5387704515286
 32
0.0
 13
73.09016578932619
 23
200.5387704515286
 33
0.0
  0
SOLID
  5
7AD
330
6EE
100
AcDbEntity
  8
Bemaßungen(TC_020513_DIN)
  6
Continuous
 62
     7
100
AcDbTrace
 10
72.25683245599284
 20
157.7347704515286
 30
0.0
 11
73.92349912265951
 21
157.7347704515286
 31
0.0
 12
73.09016578932618
 22
152.7347704515286
 32
0.0
 13
73.09016578932618
 23
152.7347704515286
 33
0.0
  0
MTEXT
  5
7AE
330
6EE
100
AcDbEntity
  8
Bemaßungen(TC_020513_DIN)
  6
Continuous
 62
     7
370
    25
100
AcDbMText
 10
63.07679607582002
 20
167.3973434392503
 30
0.0
 40
7.0
 41
0.0
 71
     1
 72
     1
  1
\A1;47,8
  7
Aktuell-BSI
 11
0.0000000000000001
 21
1.0
 31
0.0
 73
     1
 44
1.0
1001
ACAD
1000
MTEXTBEGIN
1070
    73
1070
     1
1070
    44
1040
1.0
1070
    74
1070
     0
1000
MTEXTEND
  0
POINT
  5
7AF
330
6EE
100
AcDbEntity
  8
Defpoints
  6
Continuous
 62
     0
100
AcDbPoint
 10
105.0901657893261
 20
200.5387704515286
 30
0.0
  0
POINT
  5
7B0
330
6EE
100
AcDbEntity
  8
Defpoints
  6
Continuous
 62
     0
100
AcDbPoint
 10
105.0901657893261
 20
152.7347704515286
 30
0.0
  0
POINT
  5
7B1
330
6EE
100
AcDbEntity
  8
Defpoints
  6
Continuous
 62
     0
100
AcDbPoint
 10
73.09016578932618
 20
152.7347704515286
 30
0.0
  0
ENDBLK
  5
6FA
330
6EE
100
AcDbEntity
  8
0
100
AcDbBlockEnd
  0
BLOCK
  5
7BE
330
7B3
100
AcDbEntity
  8
0
100
AcDbBlockBegin
  2
*D13
 70
     1
 10
0.0
 20
0.0
 30
0.0
  3
*D13
  1

  0
LINE
  5
86E
330
7B3
100
AcDbEntity
  8
Bemaßungen(TC_020513_DIN)
  6
Continuous
 62
     7
370
    25
100
AcDbLine
 10
99.0901657893262
 20
144.1367704515286
 30
0.0
 11
52.31351046085412
 21
144.1367704515287
 31
0.0
  0
LINE
  5
86F
330
7B3
100
AcDbEntity
  8
Bemaßungen(TC_020513_DIN)
  6
Continuous
 62
     7
370
    25
100
AcDbLine
 10
115.3401657893261
 20
343.1367704515287
 30
0.0
 11
52.31351046085415
 21
343.1367704515287
 31
0.0
  0
LINE
  5
870
330
7B3
100
AcDbEntity
  8
Bemaßungen(TC_020513_DIN)
  6
Continuous
 62
     7
370
    25
100
AcDbLine
 10
56.31351046085412
 20
149.1367704515287
 30
0.0
 11
56.31351046085416
 21
338.1367704515287
 31
0.0
  0
SOLID
  5
871
330
7B3
100
AcDbEntity
  8
Bemaßungen(TC_020513_DIN)
  6
Continuous
 62
     7
100
AcDbTrace
 10
55.48017712752078
 20
149.1367704515287
 30
0.0
 11
57.14684379418745
 21
149.1367704515287
 31
0.0
 12
56.31351046085412
 22
144.1367704515287
 32
0.0
 13
56.31351046085412
 23
144.1367704515287
 33
0.0
  0
SOLID
  5
872
330
7B3
100
AcDbEntity
  8
Bemaßungen(TC_020513_DIN)
  6
Continuous
 62
     7
100
AcDbTrace
 10
55.48017712752082
 20
338.1367704515287
 30
0.0
 11
57.14684379418749
 21
338.1367704515287
 31
0.0
 12
56.31351046085416
 22
343.1367704515287
 32
0.0
 13
56.31351046085416
 23
343.1367704515287
 33
0.0
  0
MTEXT
  5
873
330
7B3
100
AcDbEntity
  8
Bemaßungen(TC_020513_DIN)
  6
Continuous
 62
     7
370
    25
100
AcDbMText
 10
47.56548863275042
 20
231.0692941715973
 30
0.0
 40
7.0
 41
0.0
 71
     1
 72
     1
  1
\A1;199
  7
Aktuell-BSI
 11
0.0000000000000001
 21
1.0
 31
0.0
 73
     1
 44
1.0
1001
ACAD
1000
MTEXTBEGIN
1070
    73
1070
     1
1070
    44
1040
1.0
1070
    74
1070
     0
1000
MTEXTEND
  0
POINT
  5
874
330
7B3
100
AcDbEntity
  8
Defpoints
  6
Continuous
 62
     0
100
AcDbPoint
 10
101.0901657893262
 20
144.1367704515286
 30
0.0
  0
POINT
  5
875
330
7B3
100
AcDbEntity
  8
Defpoints
  6
Continuous
 62
     0
100
AcDbPoint
 10
117.3401657893262
 20
343.1367704515287
 30
0.0
  0
POINT
  5
876
330
7B3
100
AcDbEntity
  8
Defpoints
  6
Continuous
 62
     0
100
AcDbPoint
 10
56.31351046085416
 20
343.1367704515287
 30
0.0
  0
ENDBLK
  5
7BF
330
7B3
100
AcDbEntity
  8
0
100
AcDbBlockEnd
  0
BLOCK
  5
883
330
878
100
AcDbEntity
  8
0
100
AcDbBlockBegin
  2
*D14
 70
     1
 10
0.0
 20
0.0
 30
0.0
  3
*D14
  1

  0
LINE
  5
933
330
878
100
AcDbEntity
  8
Bemaßungen(TC_020513_DIN)
  6
Continuous
 62
     7
370
    25
100
AcDbLine
 10
243.8401657893262
 20
237.3018339609898
 30
0.0
 11
243.8401657893262
 21
363.1367704515287
 31
0.0
  0
LINE
  5
934
330
878
100
AcDbEntity
  8
Bemaßungen(TC_020513_DIN)
  6
Continuous
 62
     7
370
    25
100
AcDbLine
 10
94.34016578932617
 20
237.3018339609898
 30
0.0
 11
94.34016578932618
 21
363.1367704515287
 31
0.0
  0
LINE
  5
935
330
878
100
AcDbEntity
  8
Bemaßungen(TC_020513_DIN)
  6
Continuous
 62
     7
370
    25
100
AcDbLine
 10
238.8401657893262
 20
359.1367704515287
 30
0.0
 11
99.34016578932618
 21
359.1367704515287
 31
0.0
  0
SOLID
  5
936
330
878
100
AcDbEntity
  8
Bemaßungen(TC_020513_DIN)
  6
Continuous
 62
     7
100
AcDbTrace
 10
238.8401657893262
 20
359.970103784862
 30
0.0
 11
238.8401657893262
 21
358.3034371181954
 31
0.0
 12
243.8401657893262
 22
359.1367704515287
 32
0.0
 13
243.8401657893262
 23
359.1367704515287
 33
0.0
  0
SOLID
  5
937
330
878
100
AcDbEntity
  8
Bemaßungen(TC_020513_DIN)
  6
Continuous
 62
     7
100
AcDbTrace
 10
99.34016578932618
 20
359.970103784862
 30
0.0
 11
99.34016578932618
 21
358.3034371181954
 31
0.0
 12
94.34016578932618
 22
359.1367704515287
 32
0.0
 13
94.34016578932618
 23
359.1367704515287
 33
0.0
  0
MTEXT
  5
938
330
878
100
AcDbEntity
  8
Bemaßungen(TC_020513_DIN)
  6
Continuous
 62
     7
370
    25
100
AcDbMText
 10
157.582662378685
 20
369.1501401650348
 30
0.0
 40
7.0
 41
0.0
 71
     1
 72
     1
  1
\A1;149,5
  7
Aktuell-BSI
 73
     1
 44
1.0
1001
ACAD
1000
MTEXTBEGIN
1070
    73
1070
     1
1070
    44
1040
1.0
1070
    74
1070
     0
1000
MTEXTEND
  0
POINT
  5
939
330
878
100
AcDbEntity
  8
Defpoints
  6
Continuous
 62
     0
100
AcDbPoint
 10
243.8401657893262
 20
235.3018339609898
 30
0.0
  0
POINT
  5
93A
330
878
100
AcDbEntity
  8
Defpoints
  6
Continuous
 62
     0
100
AcDbPoint
 10
94.34016578932617
 20
235.3018339609898
 30
0.0
  0
POINT
  5
93B
330
878
100
AcDbEntity
  8
Defpoints
  6
Continuous
 62
     0
100
AcDbPoint
 10
94.34016578932618
 20
359.1367704515287
 30
0.0
  0
ENDBLK
  5
884
330
878
100
AcDbEntity
  8
0
100
AcDbBlockEnd
  0
BLOCK
  5
949
330
93E
100
AcDbEntity
  8
0
100
AcDbBlockBegin
  2
*D15
 70
     1
 10
0.0
 20
0.0
 30
0.0
  3
*D15
  1

  0
LINE
  5
9F9
330
93E
100
AcDbEntity
  8
Bemaßungen(TC_020513_DIN)
  6
Continuous
 62
     7
370
    25
100
AcDbLine
 10
295.6574891635511
 20
341.1367704515287
 30
0.0
 11
295.6574891635511
 21
363.1367704515287
 31
0.0
  0
LINE
  5
9FA
330
93E
100
AcDbEntity
  8
Bemaßungen(TC_020513_DIN)
  6
Continuous
 62
     7
370
    25
100
AcDbLine
 10
463.1600836699607
 20
232.6367704515287
 30
0.0
 11
463.1600836699607
 21
363.1367704515287
 31
0.0
  0
LINE
  5
9FB
330
93E
100
AcDbEntity
  8
Bemaßungen(TC_020513_DIN)
  6
Continuous
 62
     7
370
    25
100
AcDbLine
 10
300.6574891635511
 20
359.1367704515286
 30
0.0
 11
458.1600836699607
 21
359.1367704515286
 31
0.0
  0
SOLID
  5
9FC
330
93E
100
AcDbEntity
  8
Bemaßungen(TC_020513_DIN)
  6
Continuous
 62
     7
100
AcDbTrace
 10
300.6574891635511
 20
359.970103784862
 30
0.0
 11
300.6574891635511
 21
358.3034371181954
 31
0.0
 12
295.6574891635511
 22
359.1367704515286
 32
0.0
 13
295.6574891635511
 23
359.1367704515286
 33
0.0
  0
SOLID
  5
9FD
330
93E
100
AcDbEntity
  8
Bemaßungen(TC_020513_DIN)
  6
Continuous
 62
     7
100
AcDbTrace
 10
458.1600836699607
 20
359.970103784862
 30
0.0
 11
458.1600836699607
 21
358.3034371181954
 31
0.0
 12
463.1600836699607
 22
359.1367704515286
 32
0.0
 13
463.1600836699607
 23
359.1367704515286
 33
0.0
  0
MTEXT
  5
9FE
330
93E
100
AcDbEntity
  8
Bemaßungen(TC_020513_DIN)
  6
Continuous
 62
     7
370
    25
100
AcDbMText
 10
367.9012830061147
 20
369.1501401650348
 30
0.0
 40
7.0
 41
0.0
 71
     1
 72
     1
  1
\A1;167,5
  7
Aktuell-BSI
 73
     1
 44
1.0
1001
ACAD
1000
MTEXTBEGIN
1070
    73
1070
     1
1070
    44
1040
1.0
1070
    74
1070
     0
1000
MTEXTEND
  0
POINT
  5
9FF
330
93E
100
AcDbEntity
  8
Defpoints
  6
Continuous
 62
     0
100
AcDbPoint
 10
295.6574891635511
 20
339.1367704515287
 30
0.0
  0
POINT
  5
A00
330
93E
100
AcDbEntity
  8
Defpoints
  6
Continuous
 62
     0
100
AcDbPoint
 10
463.1600836699607
 20
230.6367704515287
 30
0.0
  0
POINT
  5
A01
330
93E
100
AcDbEntity
  8
Defpoints
  6
Continuous
 62
     0
100
AcDbPoint
 10
463.1600836699607
 20
359.1367704515286
 30
0.0
  0
ENDBLK
  5
94A
330
93E
100
AcDbEntity
  8
0
100
AcDbBlockEnd
  0
BLOCK
  5
A0E
330
A03
100
AcDbEntity
  8
0
100
AcDbBlockBegin
  2
*D16
 70
     1
 10
0.0
 20
0.0
 30
0.0
  3
*D16
  1

  0
LINE
  5
ABE
330
A03
100
AcDbEntity
  8
Bemaßungen(TC_020513_DIN)
  6
Continuous
 62
     7
370
    25
100
AcDbLine
 10
113.5901657893262
 20
137.1367704515286
 30
0.0
 11
113.5901657893262
 21
115.1367704515286
 31
0.0
  0
LINE
  5
ABF
330
A03
100
AcDbEntity
  8
Bemaßungen(TC_020513_DIN)
  6
Continuous
 62
     7
370
    25
100
AcDbLine
 10
224.5901657893262
 20
137.1367704515286
 30
0.0
 11
224.5901657893262
 21
115.1367704515286
 31
0.0
  0
LINE
  5
AC0
330
A03
100
AcDbEntity
  8
Bemaßungen(TC_020513_DIN)
  6
Continuous
 62
     7
370
    25
100
AcDbLine
 10
118.5901657893261
 20
119.1367704515286
 30
0.0
 11
219.5901657893262
 21
119.1367704515286
 31
0.0
  0
SOLID
  5
AC1
330
A03
100
AcDbEntity
  8
Bemaßungen(TC_020513_DIN)
  6
Continuous
 62
     7
100
AcDbTrace
 10
118.5901657893261
 20
119.9701037848619
 30
0.0
 11
118.5901657893261
 21
118.3034371181953
 31
0.0
 12
113.5901657893262
 22
119.1367704515286
 32
0.0
 13
113.5901657893262
 23
119.1367704515286
 33
0.0
  0
SOLID
  5
AC2
330
A03
100
AcDbEntity
  8
Bemaßungen(TC_020513_DIN)
  6
Continuous
 62
     7
100
AcDbTrace
 10
219.5901657893262
 20
119.9701037848619
 30
0.0
 11
219.5901657893262
 21
118.3034371181953
 31
0.0
 12
224.5901657893262
 22
119.1367704515286
 32
0.0
 13
224.5901657893262
 23
119.1367704515286
 33
0.0
  0
MTEXT
  5
AC3
330
A03
100
AcDbEntity
  8
Bemaßungen(TC_020513_DIN)
  6
Continuous
 62
     7
370
    25
100
AcDbMText
 10
162.3623349571297
 20
127.7654198376132
 30
0.0
 40
7.0
 41
0.0
 71
     1
 72
     1
  1
\A1;111
  7
Aktuell-BSI
 73
     1
 44
1.0
1001
ACAD
1000
MTEXTBEGIN
1070
    73
1070
     1
1070
    44
1040
1.0
1070
    74
1070
     0
1000
MTEXTEND
  0
POINT
  5
AC4
330
A03
100
AcDbEntity
  8
Defpoints
  6
Continuous
 62
     0
100
AcDbPoint
 10
113.5901657893262
 20
139.1367704515286
 30
0.0
  0
POINT
  5
AC5
330
A03
100
AcDbEntity
  8
Defpoints
  6
Continuous
 62
     0
100
AcDbPoint
 10
224.5901657893262
 20
139.1367704515286
 30
0.0
  0
POINT
  5
AC6
330
A03
100
AcDbEntity
  8
Defpoints
  6
Continuous
 62
     0
100
AcDbPoint
 10
224.5901657893262
 20
119.1367704515286
 30
0.0
  0
ENDBLK
  5
A0F
330
A03
100
AcDbEntity
  8
0
100
AcDbBlockEnd
  0
BLOCK
  5
AD3
330
AC8
100
AcDbEntity
  8
0
100
AcDbBlockBegin
  2
*D17
 70
     1
 10
0.0
 20
0.0
 30
0.0
  3
*D17
  1

  0
LINE
  5
B83
330
AC8
100
AcDbEntity
  8
Bemaßungen(TC_020513_DIN)
  6
Continuous
 62
     7
370
    25
100
AcDbLine
 10
98.59016578932619
 20
145.1367704515286
 30
0.0
 11
98.59016578932619
 21
99.13677045152866
 31
0.0
  0
LINE
  5
B84
330
AC8
100
AcDbEntity
  8
Bemaßungen(TC_020513_DIN)
  6
Continuous
 62
     7
370
    25
100
AcDbLine
 10
239.5901657893262
 20
145.1367704515286
 30
0.0
 11
239.5901657893262
 21
99.13677045152866
 31
0.0
  0
LINE
  5
B85
330
AC8
100
AcDbEntity
  8
Bemaßungen(TC_020513_DIN)
  6
Continuous
 62
     7
370
    25
100
AcDbLine
 10
103.5901657893262
 20
103.1367704515286
 30
0.0
 11
234.5901657893262
 21
103.1367704515286
 31
0.0
  0
SOLID
  5
B86
330
AC8
100
AcDbEntity
  8
Bemaßungen(TC_020513_DIN)
  6
Continuous
 62
     7
100
AcDbTrace
 10
103.5901657893262
 20
103.970103784862
 30
0.0
 11
103.5901657893262
 21
102.3034371181953
 31
0.0
 12
98.59016578932619
 22
103.1367704515286
 32
0.0
 13
98.59016578932619
 23
103.1367704515286
 33
0.0
  0
SOLID
  5
B87
330
AC8
100
AcDbEntity
  8
Bemaßungen(TC_020513_DIN)
  6
Continuous
 62
     7
100
AcDbTrace
 10
234.5901657893262
 20
103.970103784862
 30
0.0
 11
234.5901657893262
 21
102.3034371181953
 31
0.0
 12
239.5901657893262
 22
103.1367704515286
 32
0.0
 13
239.5901657893262
 23
103.1367704515286
 33
0.0
  0
MTEXT
  5
B88
330
AC8
100
AcDbEntity
  8
Bemaßungen(TC_020513_DIN)
  6
Continuous
 62
     7
370
    25
100
AcDbMText
 10
162.3623349571297
 20
111.7654198376132
 30
0.0
 40
7.0
 41
0.0
 71
     1
 72
     1
  1
\A1;141
  7
Aktuell-BSI
 73
     1
 44
1.0
1001
ACAD
1000
MTEXTBEGIN
1070
    73
1070
     1
1070
    44
1040
1.0
1070
    74
1070
     0
1000
MTEXTEND
  0
POINT
  5
B89
330
AC8
100
AcDbEntity
  8
Defpoints
  6
Continuous
 62
     0
100
AcDbPoint
 10
98.59016578932619
 20
147.1367704515286
 30
0.0
  0
POINT
  5
B8A
330
AC8
100
AcDbEntity
  8
Defpoints
  6
Continuous
 62
     0
100
AcDbPoint
 10
239.5901657893262
 20
147.1367704515286
 30
0.0
  0
POINT
  5
B8B
330
AC8
100
AcDbEntity
  8
Defpoints
  6
Continuous
 62
     0
100
AcDbPoint
 10
239.5901657893262
 20
103.1367704515286
 30
0.0
  0
ENDBLK
  5
AD4
330
AC8
100
AcDbEntity
  8
0
100
AcDbBlockEnd
  0
BLOCK
  5
B98
330
B8D
100
AcDbEntity
  8
0
100
AcDbBlockBegin
  2
*D18
 70
     1
 10
0.0
 20
0.0
 30
0.0
  3
*D18
  1

  0
LINE
  5
C48
330
B8D
100
AcDbEntity
  8
Bemaßungen(TC_020513_DIN)
  6
Continuous
 62
     7
370
    25
100
AcDbLine
 10
316.1574891635518
 20
137.1367704515286
 30
0.0
 11
316.1574891635518
 21
115.1367704515286
 31
0.0
  0
LINE
  5
C49
330
B8D
100
AcDbEntity
  8
Bemaßungen(TC_020513_DIN)
  6
Continuous
 62
     7
370
    25
100
AcDbLine
 10
422.1574891635517
 20
137.1367704515286
 30
0.0
 11
422.1574891635517
 21
115.1367704515286
 31
0.0
  0
LINE
  5
C4A
330
B8D
100
AcDbEntity
  8
Bemaßungen(TC_020513_DIN)
  6
Continuous
 62
     7
370
    25
100
AcDbLine
 10
321.1574891635518
 20
119.1367704515286
 30
0.0
 11
417.1574891635517
 21
119.1367704515286
 31
0.0
  0
SOLID
  5
C4B
330
B8D
100
AcDbEntity
  8
Bemaßungen(TC_020513_DIN)
  6
Continuous
 62
     7
100
AcDbTrace
 10
321.1574891635518
 20
119.9701037848619
 30
0.0
 11
321.1574891635518
 21
118.3034371181953
 31
0.0
 12
316.1574891635518
 22
119.1367704515286
 32
0.0
 13
316.1574891635518
 23
119.1367704515286
 33
0.0
  0
SOLID
  5
C4C
330
B8D
100
AcDbEntity
  8
Bemaßungen(TC_020513_DIN)
  6
Continuous
 62
     7
100
AcDbTrace
 10
417.1574891635517
 20
119.9701037848619
 30
0.0
 11
417.1574891635517
 21
118.3034371181953
 31
0.0
 12
422.1574891635517
 22
119.1367704515286
 32
0.0
 13
422.1574891635517
 23
119.1367704515286
 33
0.0
  0
MTEXT
  5
C4D
330
B8D
100
AcDbEntity
  8
Bemaßungen(TC_020513_DIN)
  6
Continuous
 62
     7
370
    25
100
AcDbMText
 10
361.7563977583677
 20
127.8847922796323
 30
0.0
 40
7.0
 41
0.0
 71
     1
 72
     1
  1
\A1;106
  7
Aktuell-BSI
 73
     1
 44
1.0
1001
ACAD
1000
MTEXTBEGIN
1070
    73
1070
     1
1070
    44
1040
1.0
1070
    74
1070
     0
1000
MTEXTEND
  0
POINT
  5
C4E
330
B8D
100
AcDbEntity
  8
Defpoints
  6
Continuous
 62
     0
100
AcDbPoint
 10
316.1574891635518
 20
139.1367704515286
 30
0.0
  0
POINT
  5
C4F
330
B8D
100
AcDbEntity
  8
Defpoints
  6
Continuous
 62
     0
100
AcDbPoint
 10
422.1574891635517
 20
139.1367704515286
 30
0.0
  0
POINT
  5
C50
330
B8D
100
AcDbEntity
  8
Defpoints
  6
Continuous
 62
     0
100
AcDbPoint
 10
422.1574891635517
 20
119.1367704515286
 30
0.0
  0
ENDBLK
  5
B99
330
B8D
100
AcDbEntity
  8
0
100
AcDbBlockEnd
  0
BLOCK
  5
C5D
330
C52
100
AcDbEntity
  8
0
100
AcDbBlockBegin
  2
*D19
 70
     1
 10
0.0
 20
0.0
 30
0.0
  3
*D19
  1

  0
LINE
  5
D0D
330
C52
100
AcDbEntity
  8
Bemaßungen(TC_020513_DIN)
  6
Continuous
 62
     7
370
    25
100
AcDbLine
 10
309.1574891635481
 20
145.1367704515286
 30
0.0
 11
309.1574891635481
 21
98.98947007273884
 31
0.0
  0
LINE
  5
D0E
330
C52
100
AcDbEntity
  8
Bemaßungen(TC_020513_DIN)
  6
Continuous
 62
     7
370
    25
100
AcDbLine
 10
429.1574891635481
 20
145.1367704515286
 30
0.0
 11
429.1574891635481
 21
98.98947007273884
 31
0.0
  0
LINE
  5
D0F
330
C52
100
AcDbEntity
  8
Bemaßungen(TC_020513_DIN)
  6
Continuous
 62
     7
370
    25
100
AcDbLine
 10
314.1574891635481
 20
102.9894700727388
 30
0.0
 11
424.157489163548
 21
102.9894700727388
 31
0.0
  0
SOLID
  5
D10
330
C52
100
AcDbEntity
  8
Bemaßungen(TC_020513_DIN)
  6
Continuous
 62
     7
100
AcDbTrace
 10
314.1574891635481
 20
103.8228034060721
 30
0.0
 11
314.1574891635481
 21
102.1561367394055
 31
0.0
 12
309.1574891635481
 22
102.9894700727388
 32
0.0
 13
309.1574891635481
 23
102.9894700727388
 33
0.0
  0
SOLID
  5
D11
330
C52
100
AcDbEntity
  8
Bemaßungen(TC_020513_DIN)
  6
Continuous
 62
     7
100
AcDbTrace
 10
424.157489163548
 20
103.8228034060721
 30
0.0
 11
424.157489163548
 21
102.1561367394055
 31
0.0
 12
429.1574891635481
 22
102.9894700727388
 32
0.0
 13
429.1574891635481
 23
102.9894700727388
 33
0.0
  0
MTEXT
  5
D12
330
C52
100
AcDbEntity
  8
Bemaßungen(TC_020513_DIN)
  6
Continuous
 62
     7
370
    25
100
AcDbMText
 10
361.7659475537255
 20
111.7374919008425
 30
0.0
 40
7.0
 41
0.0
 71
     1
 72
     1
  1
\A1;120
  7
Aktuell-BSI
 73
     1
 44
1.0
1001
ACAD
1000
MTEXTBEGIN
1070
    73
1070
     1
1070
    44
1040
1.0
1070
    74
1070
     0
1000
MTEXTEND
  0
POINT
  5
D13
330
C52
100
AcDbEntity
  8
Defpoints
  6
Continuous
 62
     0
100
AcDbPoint
 10
309.1574891635481
 20
147.1367704515286
 30
0.0
  0
POINT
  5
D14
330
C52
100
AcDbEntity
  8
Defpoints
  6
Continuous
 62
     0
100
AcDbPoint
 10
429.1574891635481
 20
147.1367704515286
 30
0.0
  0
POINT
  5
D15
330
C52
100
AcDbEntity
  8
Defpoints
  6
Continuous
 62
     0
100
AcDbPoint
 10
429.1574891635481
 20
102.9894700727388
 30
0.0
  0
ENDBLK
  5
C5E
330
C52
100
AcDbEntity
  8
0
100
AcDbBlockEnd
  0
BLOCK
  5
D22
330
D17
100
AcDbEntity
  8
0
100
AcDbBlockBegin
  2
*D20
 70
     1
 10
0.0
 20
0.0
 30
0.0
  3
*D20
  1

  0
LINE
  5
DD2
330
D17
100
AcDbEntity
  8
Bemaßungen(TC_020513_DIN)
  6
Continuous
 62
     7
370
    25
100
AcDbLine
 10
400.6574891635482
 20
243.1367704515287
 30
0.0
 11
510.7207006750035
 21
243.1367704515286
 31
0.0
  0
LINE
  5
DD3
330
D17
100
AcDbEntity
  8
Bemaßungen(TC_020513_DIN)
  6
Continuous
 62
     7
370
    25
100
AcDbLine
 10
428.6574891635474
 20
144.1367704515286
 30
0.0
 11
510.7207006750035
 21
144.1367704515286
 31
0.0
  0
LINE
  5
DD4
330
D17
100
AcDbEntity
  8
Bemaßungen(TC_020513_DIN)
  6
Continuous
 62
     7
370
    25
100
AcDbLine
 10
506.7207006750034
 20
238.1367704515287
 30
0.0
 11
506.7207006750034
 21
149.1367704515286
 31
0.0
  0
SOLID
  5
DD5
330
D17
100
AcDbEntity
  8
Bemaßungen(TC_020513_DIN)
  6
Continuous
 62
     7
100
AcDbTrace
 10
505.8873673416701
 20
238.1367704515287
 30
0.0
 11
507.5540340083367
 21
238.1367704515287
 31
0.0
 12
506.7207006750034
 22
243.1367704515286
 32
0.0
 13
506.7207006750034
 23
243.1367704515286
 33
0.0
  0
SOLID
  5
DD6
330
D17
100
AcDbEntity
  8
Bemaßungen(TC_020513_DIN)
  6
Continuous
 62
     7
100
AcDbTrace
 10
505.8873673416701
 20
149.1367704515286
 30
0.0
 11
507.5540340083367
 21
149.1367704515286
 31
0.0
 12
506.7207006750034
 22
144.1367704515286
 32
0.0
 13
506.7207006750034
 23
144.1367704515286
 33
0.0
  0
MTEXT
  5
DD7
330
D17
100
AcDbEntity
  8
Bemaßungen(TC_020513_DIN)
  6
Continuous
 62
     7
370
    25
100
AcDbMText
 10
497.9726788468997
 20
188.6159655402053
 30
0.0
 40
7.0
 41
0.0
 71
     1
 72
     1
  1
\A1;99
  7
Aktuell-BSI
 11
0.0000000000000001
 21
1.0
 31
0.0
 73
     1
 44
1.0
1001
ACAD
1000
MTEXTBEGIN
1070
    73
1070
     1
1070
    44
1040
1.0
1070
    74
1070
     0
1000
MTEXTEND
  0
POINT
  5
DD8
330
D17
100
AcDbEntity
  8
Defpoints
  6
Continuous
 62
     0
100
AcDbPoint
 10
398.6574891635482
 20
243.1367704515287
 30
0.0
  0
POINT
  5
DD9
330
D17
100
AcDbEntity
  8
Defpoints
  6
Continuous
 62
     0
100
AcDbPoint
 10
426.6574891635474
 20
144.1367704515286
 30
0.0
  0
POINT
  5
DDA
330
D17
100
AcDbEntity
  8
Defpoints
  6
Continuous
 62
     0
100
AcDbPoint
 10
506.7207006750034
 20
144.1367704515286
 30
0.0
  0
ENDBLK
  5
D23
330
D17
100
AcDbEntity
  8
0
100
AcDbBlockEnd
  0
BLOCK
  5
DE7
330
DDC
100
AcDbEntity
  8
0
100
AcDbBlockBegin
  2
*D21
 70
     1
 10
0.0
 20
0.0
 30
0.0
  3
*D21
  1

  0
LINE
  5
EAF
330
DDC
100
AcDbEntity
  8
Bemaßungen(TC_020513_DIN)
  6
Continuous
 62
     7
370
    25
100
AcDbLine
 10
428.6574891635477
 20
151.1367704515286
 30
0.0
 11
486.6574891635478
 21
151.1367704515286
 31
0.0
  0
LINE
  5
EB0
330
DDC
100
AcDbEntity
  8
Bemaßungen(TC_020513_DIN)
  6
Continuous
 62
     7
370
    25
100
AcDbLine
 10
428.6574891635474
 20
144.1367704515286
 30
0.0
 11
486.6574891635478
 21
144.1367704515286
 31
0.0
  0
LINE
  5
EB1
330
DDC
100
AcDbEntity
  8
Bemaßungen(TC_020513_DIN)
  6
Continuous
 62
     7
370
    25
100
AcDbLine
 10
482.6574891635478
 20
139.1367704515286
 30
0.0
 11
482.6574891635478
 21
134.1367704515286
 31
0.0
  0
LINE
  5
EB2
330
DDC
100
AcDbEntity
  8
Bemaßungen(TC_020513_DIN)
  6
Continuous
 62
     7
370
    25
100
AcDbLine
 10
482.6574891635478
 20
156.1367704515286
 30
0.0
 11
482.6574891635478
 21
168.8681483505736
 31
0.0
  0
LINE
  5
EB3
330
DDC
100
AcDbEntity
  8
Bemaßungen(TC_020513_DIN)
  6
Continuous
 62
     7
370
    25
100
AcDbLine
 10
482.6574891635478
 20
144.1367704515286
 30
0.0
 11
482.6574891635478
 21
151.1367704515286
 31
0.0
  0
SOLID
  5
EB4
330
DDC
100
AcDbEntity
  8
Bemaßungen(TC_020513_DIN)
  6
Continuous
 62
     7
100
AcDbTrace
 10
481.8241558302144
 20
139.1367704515286
 30
0.0
 11
483.4908224968811
 21
139.1367704515286
 31
0.0
 12
482.6574891635478
 22
144.1367704515286
 32
0.0
 13
482.6574891635478
 23
144.1367704515286
 33
0.0
  0
SOLID
  5
EB5
330
DDC
100
AcDbEntity
  8
Bemaßungen(TC_020513_DIN)
  6
Continuous
 62
     7
100
AcDbTrace
 10
481.8241558302144
 20
156.1367704515286
 30
0.0
 11
483.4908224968811
 21
156.1367704515286
 31
0.0
 12
482.6574891635478
 22
151.1367704515286
 32
0.0
 13
482.6574891635478
 23
151.1367704515286
 33
0.0
  0
MTEXT
  5
EB6
330
DDC
100
AcDbEntity
  8
Bemaßungen(TC_020513_DIN)
  6
Continuous
 62
     7
370
    25
100
AcDbMText
 10
474.0574891635477
 20
162.7367704515287
 30
0.0
 40
7.0
 41
0.0
 71
     1
 72
     1
  1
\A1;7
  7
Aktuell-BSI
 11
0.0000000000000001
 21
1.0
 31
0.0
 73
     1
 44
1.0
1001
ACAD
1000
MTEXTBEGIN
1070
    73
1070
     1
1070
    44
1040
1.0
1070
    74
1070
     0
1000
MTEXTEND
  0
POINT
  5
EB7
330
DDC
100
AcDbEntity
  8
Defpoints
  6
Continuous
 62
     0
100
AcDbPoint
 10
426.6574891635476
 20
151.1367704515286
 30
0.0
  0
POINT
  5
EB8
330
DDC
100
AcDbEntity
  8
Defpoints
  6
Continuous
 62
     0
100
AcDbPoint
 10
426.6574891635474
 20
144.1367704515286
 30
0.0
  0
POINT
  5
EB9
330
DDC
100
AcDbEntity
  8
Defpoints
  6
Continuous
 62
     0
100
AcDbPoint
 10
482.6574891635478
 20
144.1367704515286
 30
0.0
  0
ENDBLK
  5
DE8
330
DDC
100
AcDbEntity
  8
0
100
AcDbBlockEnd
  0
ENDSEC
  0
SECTION
  2
ENTITIES
  0
INSERT
  5
153
330
37
100
AcDbEntity
  8
0
100
AcDbBlockReference
  2
Ränder Ilme Rahmen A4 quer
 10
0.0
 20
0.0
 30
0.0
 41
2.0
 42
2.0
 43
2.0
  0
INSERT
  5
1C7
330
37
100
AcDbEntity
  8
0
100
AcDbBlockReference
 66
     1
  2
Schriftfelder Ilme
 10
174.039620099394
 20
-0.0012801852524968
 30
0.0
 41
2.0
 42
2.0
 43
2.0
  0
ATTRIB
  5
1C9
330
1C7
100
AcDbEntity
  8
Symbole(ISO)
 62
     7
100
AcDbText
 10
276.0000000000001
 20
23.49999994039527
 30
0.0
 40
8.000000119209289
  1
surface mount.h. 1l+cover 2xPG36 180°C
  7
Kopie von TC 5 mm
 11
276.0000000000001
 21
27.49999999999991
 31
0.0
100
AcDbAttribute
  2
BEZEICHNUNG
 70
     0
 74
     2
  0
ATTRIB
  5
1CA
330
1C7
100
AcDbEntity
  8
Symbole(ISO)
 62
     7
100
AcDbText
 10
502.6109142833485
 20
24.99999999999991
 30
0.0
 40
10.0
  1
1:2
 41
0.899999976158142
  7
TC 5 mm
 72
     1
 11
511.35
 21
29.99999999999991
 31
0.0
100
AcDbAttribute
  2
FirstViewScale
 70
     0
 74
     2
  0
ATTRIB
  5
1CB
330
1C7
100
AcDbEntity
  8
Symbole(ISO)
 62
     7
100
AcDbText
 10
276.0000000000001
 20
38.49999994039527
 30
0.0
 40
8.000000119209289
  1
CHPR 48 LS
 41
1.199999928474426
  7
Kopie von TC 5 mm
 11
276.0000000000001
 21
42.49999999999992
 31
0.0
100
AcDbAttribute
  2
BAUTEILNUMMER
 70
     0
 74
     2
  0
SEQEND
  5
1C8
330
1C7
100
AcDbEntity
  8
0
  0
LINE
  5
1CC
330
37
100
AcDbEntity
  8
Sichtbare Kanten(TC_020513_DIN)
100
AcDbLine
 10
106.3401657893262
 20
292.6367704515286
 30
0.0
 11
109.3401657893261
 21
292.6367704515286
 31
0.0
  0
LINE
  5
1CD
330
37
100
AcDbEntity
  8
Sichtbare Kanten(TC_020513_DIN)
100
AcDbLine
 10
109.3401657893261
 20
292.6367704515286
 30
0.0
 11
109.3401657893261
 21
302.6367704515287
 31
0.0
  0
LINE
  5
1CE
330
37
100
AcDbEntity
  8
Sichtbare Kanten(TC_020513_DIN)
100
AcDbLine
 10
109.3401657893261
 20
302.6367704515287
 30
0.0
 11
106.3401657893262
 21
302.6367704515287
 31
0.0
  0
LINE
  5
1CF
330
37
100
AcDbEntity
  8
Sichtbare Kanten(TC_020513_DIN)
100
AcDbLine
 10
106.3401657893261
 20
268.1367704515287
 30
0.0
 11
106.3401657893261
 21
327.1367704515286
 31
0.0
  0
LINE
  5
1D0
330
37
100
AcDbEntity
  8
Sichtbare Kanten(TC_020513_DIN)
100
AcDbLine
 10
231.8401657893262
 20
327.1367704515286
 30
0.0
 11
231.8401657893262
 21
268.1367704515287
 31
0.0
  0
LINE
  5
1D1
330
37
100
AcDbEntity
  8
Sichtbare Kanten(TC_020513_DIN)
100
AcDbLine
 10
134.3401657893262
 20
252.1367704515286
 30
0.0
 11
117.3401657893262
 21
252.1367704515286
 31
0.0
  0
LINE
  5
1D2
330
37
100
AcDbEntity
  8
Sichtbare Kanten(TC_020513_DIN)
100
AcDbLine
 10
220.8401657893262
 20
252.1367704515286
 30
0.0
 11
203.8401657893262
 21
252.1367704515286
 31
0.0
  0
LINE
  5
1D3
330
37
100
AcDbEntity
  8
Sichtbare Kanten(TC_020513_DIN)
100
AcDbLine
 10
194.3401657893262
 20
252.1367704515286
 30
0.0
 11
143.8401657893262
 21
252.1367704515286
 31
0.0
  0
ARC
  5
1D4
330
37
100
AcDbEntity
  8
Sichtbare Kanten(TC_020513_DIN)
100
AcDbCircle
 10
220.8401657893262
 20
268.1367704515287
 30
0.0
 40
16.00000000000001
100
AcDbArc
 50
270.0000000000001
 51
0.0
  0
LINE
  5
1D5
330
37
100
AcDbEntity
  8
Sichtbare Kanten(TC_020513_DIN)
100
AcDbLine
 10
236.8401657893262
 20
327.1367704515286
 30
0.0
 11
236.8401657893262
 21
268.1367704515287
 31
0.0
  0
ARC
  5
1D6
330
37
100
AcDbEntity
  8
Sichtbare Kanten(TC_020513_DIN)
100
AcDbCircle
 10
220.8401657893262
 20
327.1367704515286
 30
0.0
 40
16.00000000000001
100
AcDbArc
 50
0.0
 51
90.0
  0
LINE
  5
1D7
330
37
100
AcDbEntity
  8
Sichtbare Kanten(TC_020513_DIN)
100
AcDbLine
 10
117.3401657893262
 20
343.1367704515287
 30
0.0
 11
220.8401657893262
 21
343.1367704515287
 31
0.0
  0
ARC
  5
1D8
330
37
100
AcDbEntity
  8
Sichtbare Kanten(TC_020513_DIN)
100
AcDbCircle
 10
117.3401657893262
 20
327.1367704515286
 30
0.0
 40
16.00000000000001
100
AcDbArc
 50
90.00000000000005
 51
180.0
  0
LINE
  5
1D9
330
37
100
AcDbEntity
  8
Sichtbare Kanten(TC_020513_DIN)
100
AcDbLine
 10
101.3401657893261
 20
268.1367704515287
 30
0.0
 11
101.3401657893261
 21
327.1367704515286
 31
0.0
  0
ARC
  5
1DA
330
37
100
AcDbEntity
  8
Sichtbare Kanten(TC_020513_DIN)
100
AcDbCircle
 10
117.3401657893262
 20
268.1367704515287
 30
0.0
 40
16.00000000000001
100
AcDbArc
 50
180.0
 51
269.9999999999999
  0
ARC
  5
1DB
330
37
100
AcDbEntity
  8
Sichtbare Kanten(TC_020513_DIN)
100
AcDbCircle
 10
220.8401657893262
 20
327.1367704515287
 30
0.0
 40
10.99999999999998
100
AcDbArc
 50
0.0
 51
90.0
  0
ARC
  5
1DC
330
37
100
AcDbEntity
  8
Sichtbare Kanten(TC_020513_DIN)
100
AcDbCircle
 10
220.8401657893262
 20
268.1367704515287
 30
0.0
 40
10.99999999999998
100
AcDbArc
 50
269.9999999999998
 51
0.0
  0
LINE
  5
1DD
330
37
100
AcDbEntity
  8
Sichtbare Kanten(TC_020513_DIN)
100
AcDbLine
 10
220.8401657893262
 20
257.1367704515286
 30
0.0
 11
117.3401657893262
 21
257.1367704515286
 31
0.0
  0
ARC
  5
1DE
330
37
100
AcDbEntity
  8
Sichtbare Kanten(TC_020513_DIN)
100
AcDbCircle
 10
117.3401657893262
 20
268.1367704515287
 30
0.0
 40
11.00000000000001
100
AcDbArc
 50
180.0
 51
269.9999999999999
  0
ARC
  5
1DF
330
37
100
AcDbEntity
  8
Sichtbare Kanten(TC_020513_DIN)
100
AcDbCircle
 10
117.3401657893262
 20
327.1367704515287
 30
0.0
 40
10.99999999999998
100
AcDbArc
 50
89.99999999999982
 51
180.0
  0
LINE
  5
1E0
330
37
100
AcDbEntity
  8
Sichtbare Kanten(TC_020513_DIN)
100
AcDbLine
 10
117.3401657893262
 20
338.1367704515287
 30
0.0
 11
220.8401657893262
 21
338.1367704515287
 31
0.0
  0
LINE
  5
1E1
330
37
100
AcDbEntity
  8
Sichtbare Kanten(TC_020513_DIN)
100
AcDbLine
 10
228.8401657893262
 20
302.6367704515287
 30
0.0
 11
231.8401657893262
 21
302.6367704515287
 31
0.0
  0
LINE
  5
1E2
330
37
100
AcDbEntity
  8
Sichtbare Kanten(TC_020513_DIN)
100
AcDbLine
 10
228.8401657893262
 20
292.6367704515286
 30
0.0
 11
228.8401657893262
 21
302.6367704515287
 31
0.0
  0
LINE
  5
1E3
330
37
100
AcDbEntity
  8
Sichtbare Kanten(TC_020513_DIN)
100
AcDbLine
 10
231.8401657893262
 20
292.6367704515286
 30
0.0
 11
228.8401657893262
 21
292.6367704515286
 31
0.0
  0
ARC
  5
1E4
330
37
100
AcDbEntity
  8
Sichtbare Kanten(TC_020513_DIN)
100
AcDbCircle
 10
110.3401657893262
 20
302.6367704515287
 30
0.0
 40
0.4999999999999894
100
AcDbArc
 50
0.0
 51
90.00000000000202
  0
ARC
  5
1E5
330
37
100
AcDbEntity
  8
Sichtbare Kanten(TC_020513_DIN)
100
AcDbCircle
 10
110.3401657893262
 20
292.6367704515286
 30
0.0
 40
0.4999999999999894
100
AcDbArc
 50
269.999999999998
 51
0.0
  0
ARC
  5
1E6
330
37
100
AcDbEntity
  8
Sichtbare Kanten(TC_020513_DIN)
100
AcDbCircle
 10
227.8401657893262
 20
302.6367704515287
 30
0.0
 40
0.4999999999999894
100
AcDbArc
 50
89.99999999999593
 51
180.0
  0
ARC
  5
1E7
330
37
100
AcDbEntity
  8
Sichtbare Kanten(TC_020513_DIN)
100
AcDbCircle
 10
227.8401657893262
 20
292.6367704515286
 30
0.0
 40
0.500000000000016
100
AcDbArc
 50
180.0
 51
270.0
  0
LINE
  5
1E8
330
37
100
AcDbEntity
  8
Sichtbare Kanten(TC_020513_DIN)
100
AcDbLine
 10
106.3401657893262
 20
303.1367704515286
 30
0.0
 11
110.3401657893262
 21
303.1367704515286
 31
0.0
  0
LINE
  5
1E9
330
37
100
AcDbEntity
  8
Sichtbare Kanten(TC_020513_DIN)
100
AcDbLine
 10
110.8401657893262
 20
302.6367704515287
 30
0.0
 11
110.8401657893262
 21
292.6367704515286
 31
0.0
  0
LINE
  5
1EA
330
37
100
AcDbEntity
  8
Sichtbare Kanten(TC_020513_DIN)
100
AcDbLine
 10
106.3401657893262
 20
289.1367704515287
 30
0.0
 11
110.8401657893262
 21
289.1367704515287
 31
0.0
  0
ARC
  5
1EB
330
37
100
AcDbEntity
  8
Sichtbare Kanten(TC_020513_DIN)
100
AcDbCircle
 10
110.8401657893262
 20
292.1367704515287
 30
0.0
 40
3.000000000000007
100
AcDbArc
 50
270.0000000000003
 51
0.0
  0
LINE
  5
1EC
330
37
100
AcDbEntity
  8
Sichtbare Kanten(TC_020513_DIN)
100
AcDbLine
 10
113.8401657893262
 20
292.1367704515287
 30
0.0
 11
113.8401657893262
 21
303.1367704515286
 31
0.0
  0
ARC
  5
1ED
330
37
100
AcDbEntity
  8
Sichtbare Kanten(TC_020513_DIN)
100
AcDbCircle
 10
110.8401657893262
 20
303.1367704515286
 30
0.0
 40
3.000000000000007
100
AcDbArc
 50
0.0
 51
90.0
  0
LINE
  5
1EE
330
37
100
AcDbEntity
  8
Sichtbare Kanten(TC_020513_DIN)
100
AcDbLine
 10
110.3401657893262
 20
292.1367704515287
 30
0.0
 11
106.3401657893262
 21
292.1367704515287
 31
0.0
  0
LINE
  5
1EF
330
37
100
AcDbEntity
  8
Sichtbare Kanten(TC_020513_DIN)
100
AcDbLine
 10
110.8401657893262
 20
306.1367704515287
 30
0.0
 11
106.3401657893262
 21
306.1367704515287
 31
0.0
  0
LINE
  5
1F0
330
37
100
AcDbEntity
  8
Sichtbare Kanten(TC_020513_DIN)
100
AcDbLine
 10
227.3401657893262
 20
302.6367704515287
 30
0.0
 11
227.3401657893262
 21
292.6367704515286
 31
0.0
  0
LINE
  5
1F1
330
37
100
AcDbEntity
  8
Sichtbare Kanten(TC_020513_DIN)
100
AcDbLine
 10
227.8401657893262
 20
292.1367704515287
 30
0.0
 11
231.8401657893262
 21
292.1367704515287
 31
0.0
  0
LINE
  5
1F2
330
37
100
AcDbEntity
  8
Sichtbare Kanten(TC_020513_DIN)
100
AcDbLine
 10
231.8401657893262
 20
303.1367704515286
 30
0.0
 11
227.8401657893262
 21
303.1367704515286
 31
0.0
  0
LINE
  5
1F3
330
37
100
AcDbEntity
  8
Sichtbare Kanten(TC_020513_DIN)
100
AcDbLine
 10
227.3401657893262
 20
306.1367704515287
 30
0.0
 11
231.8401657893262
 21
306.1367704515287
 31
0.0
  0
ARC
  5
1F4
330
37
100
AcDbEntity
  8
Sichtbare Kanten(TC_020513_DIN)
100
AcDbCircle
 10
227.3401657893262
 20
303.1367704515286
 30
0.0
 40
3.000000000000007
100
AcDbArc
 50
90.0
 51
180.0
  0
LINE
  5
1F5
330
37
100
AcDbEntity
  8
Sichtbare Kanten(TC_020513_DIN)
100
AcDbLine
 10
224.3401657893262
 20
292.1367704515287
 30
0.0
 11
224.3401657893262
 21
303.1367704515286
 31
0.0
  0
ARC
  5
1F6
330
37
100
AcDbEntity
  8
Sichtbare Kanten(TC_020513_DIN)
100
AcDbCircle
 10
227.3401657893262
 20
292.1367704515287
 30
0.0
 40
3.000000000000007
100
AcDbArc
 50
180.0
 51
270.0
  0
LINE
  5
1F7
330
37
100
AcDbEntity
  8
Sichtbare Kanten(TC_020513_DIN)
100
AcDbLine
 10
231.8401657893262
 20
289.1367704515287
 30
0.0
 11
227.3401657893262
 21
289.1367704515287
 31
0.0
  0
LINE
  5
1F8
330
37
100
AcDbEntity
  8
Sichtbare Kanten(TC_020513_DIN)
100
AcDbLine
 10
92.8401657893262
 20
297.2367735032865
 30
0.0
 11
92.34016388197757
 21
297.2367735032865
 31
0.0
  0
LINE
  5
1F9
330
37
100
AcDbEntity
  8
Sichtbare Kanten(TC_020513_DIN)
100
AcDbLine
 10
92.34016578932617
 20
295.8867704515286
 30
0.0
 11
92.34016578932617
 21
297.2367704515287
 31
0.0
  0
LINE
  5
1FA
330
37
100
AcDbEntity
  8
Sichtbare Kanten(TC_020513_DIN)
100
AcDbLine
 10
92.34016578932617
 20
298.0367704515287
 30
0.0
 11
92.34016578932617
 21
299.3867704515287
 31
0.0
  0
LINE
  5
1FB
330
37
100
AcDbEntity
  8
Sichtbare Kanten(TC_020513_DIN)
100
AcDbLine
 10
92.34016388197757
 20
298.0367727403471
 30
0.0
 11
92.8401657893262
 21
298.0367727403471
 31
0.0
  0
LINE
  5
1FC
330
37
100
AcDbEntity
  8
Sichtbare Kanten(TC_020513_DIN)
100
AcDbLine
 10
94.0901657893262
 20
295.2367704515286
 30
0.0
 11
94.0901657893262
 21
295.0117704515287
 31
0.0
  0
LINE
  5
1FD
330
37
100
AcDbEntity
  8
Sichtbare Kanten(TC_020513_DIN)
100
AcDbLine
 10
93.84016578932618
 20
295.2367704515286
 30
0.0
 11
93.84016578932618
 21
295.0117704515287
 31
0.0
  0
LINE
  5
1FE
330
37
100
AcDbEntity
  8
Sichtbare Kanten(TC_020513_DIN)
100
AcDbLine
 10
93.84016578932618
 20
301.3867704515287
 30
0.0
 11
93.84016578932618
 21
295.2367704515287
 31
0.0
  0
LINE
  5
1FF
330
37
100
AcDbEntity
  8
Sichtbare Kanten(TC_020513_DIN)
100
AcDbLine
 10
94.0901657893262
 20
301.3867704515287
 30
0.0
 11
94.0901657893262
 21
295.2367704515287
 31
0.0
  0
LINE
  5
200
330
37
100
AcDbEntity
  8
Sichtbare Kanten(TC_020513_DIN)
100
AcDbLine
 10
92.8401657893262
 20
297.2367704515287
 30
0.0
 11
92.8401657893262
 21
298.0367704515287
 31
0.0
  0
LINE
  5
201
330
37
100
AcDbEntity
  8
Sichtbare Kanten(TC_020513_DIN)
100
AcDbLine
 10
109.8401657893262
 20
300.6367704515287
 30
0.0
 11
109.8401657893262
 21
294.6367704515287
 31
0.0
  0
LINE
  5
202
330
37
100
AcDbEntity
  8
Sichtbare Kanten(TC_020513_DIN)
100
AcDbLine
 10
94.14016578932617
 20
299.8867704515287
 30
0.0
 11
94.14016578932617
 21
295.3867704515287
 31
0.0
  0
LINE
  5
203
330
37
100
AcDbEntity
  8
Sichtbare Kanten(TC_020513_DIN)
100
AcDbLine
 10
100.3401657893262
 20
301.6367704515287
 30
0.0
 11
100.3401657893262
 21
293.6367704515287
 31
0.0
  0
LINE
  5
204
330
37
100
AcDbEntity
  8
Sichtbare Kanten(TC_020513_DIN)
100
AcDbLine
 10
110.3401657893262
 20
300.1367704515287
 30
0.0
 11
110.3401657893262
 21
295.1367704515287
 31
0.0
  0
LINE
  5
205
330
37
100
AcDbEntity
  8
Sichtbare Kanten(TC_020513_DIN)
100
AcDbLine
 10
94.24016578932617
 20
301.6367704515287
 30
0.0
 11
94.24016578932617
 21
293.6367704515287
 31
0.0
  0
LINE
  5
206
330
37
100
AcDbEntity
  8
Sichtbare Kanten(TC_020513_DIN)
100
AcDbLine
 10
100.2401657893261
 20
301.6367704515287
 30
0.0
 11
100.2401657893261
 21
293.6367704515287
 31
0.0
  0
ARC
  5
207
330
37
100
AcDbEntity
  8
Sichtbare Kanten(TC_020513_DIN)
100
AcDbCircle
 10
92.84016578932616
 20
295.8867704515287
 30
0.0
 40
0.5
100
AcDbArc
 50
180.0
 51
270.0
  0
ARC
  5
208
330
37
100
AcDbEntity
  8
Sichtbare Kanten(TC_020513_DIN)
100
AcDbCircle
 10
92.84016578932616
 20
299.3867704515287
 30
0.0
 40
0.5
100
AcDbArc
 50
90.0
 51
180.0
  0
LINE
  5
209
330
37
100
AcDbEntity
  8
Sichtbare Kanten(TC_020513_DIN)
100
AcDbLine
 10
93.84016578932618
 20
295.0117704515287
 30
0.0
 11
94.0901657893262
 21
295.0117704515287
 31
0.0
  0
LINE
  5
20A
330
37
100
AcDbEntity
  8
Sichtbare Kanten(TC_020513_DIN)
100
AcDbLine
 10
93.84016578932618
 20
301.3867704515287
 30
0.0
 11
94.0901657893262
 21
301.3867704515287
 31
0.0
  0
LINE
  5
20B
330
37
100
AcDbEntity
  8
Sichtbare Kanten(TC_020513_DIN)
100
AcDbLine
 10
93.84016578932616
 20
295.3867704515287
 30
0.0
 11
92.84016578932616
 21
295.3867704515287
 31
0.0
  0
LINE
  5
20C
330
37
100
AcDbEntity
  8
Sichtbare Kanten(TC_020513_DIN)
100
AcDbLine
 10
93.84016578932616
 20
299.8867704515287
 30
0.0
 11
92.84016578932616
 21
299.8867704515287
 31
0.0
  0
LINE
  5
20D
330
37
100
AcDbEntity
  8
Sichtbare Kanten(TC_020513_DIN)
100
AcDbLine
 10
109.8401657893262
 20
294.6367704515286
 30
0.0
 11
109.3401657893261
 21
294.6367704515286
 31
0.0
  0
LINE
  5
20E
330
37
100
AcDbEntity
  8
Sichtbare Kanten(TC_020513_DIN)
100
AcDbLine
 10
109.8401657893262
 20
300.6367704515287
 30
0.0
 11
109.3401657893261
 21
300.6367704515287
 31
0.0
  0
LINE
  5
20F
330
37
100
AcDbEntity
  8
Sichtbare Kanten(TC_020513_DIN)
100
AcDbLine
 10
100.3401657893261
 20
295.3867704515287
 30
0.0
 11
100.2401657893262
 21
295.3867704515287
 31
0.0
  0
LINE
  5
210
330
37
100
AcDbEntity
  8
Sichtbare Kanten(TC_020513_DIN)
100
AcDbLine
 10
100.3401657893262
 20
299.8867704515287
 30
0.0
 11
100.2401657893261
 21
299.8867704515287
 31
0.0
  0
LINE
  5
211
330
37
100
AcDbEntity
  8
Sichtbare Kanten(TC_020513_DIN)
100
AcDbLine
 10
94.24016578932617
 20
295.3867704515287
 30
0.0
 11
94.14016578932617
 21
295.3867704515287
 31
0.0
  0
LINE
  5
212
330
37
100
AcDbEntity
  8
Sichtbare Kanten(TC_020513_DIN)
100
AcDbLine
 10
94.24016578932617
 20
299.8867704515287
 30
0.0
 11
94.14016578932617
 21
299.8867704515287
 31
0.0
  0
LINE
  5
213
330
37
100
AcDbEntity
  8
Sichtbare Kanten(TC_020513_DIN)
100
AcDbLine
 10
94.14016578932617
 20
295.8867704515286
 30
0.0
 11
94.0901657893262
 21
295.8867704515286
 31
0.0
  0
LINE
  5
214
330
37
100
AcDbEntity
  8
Sichtbare Kanten(TC_020513_DIN)
100
AcDbLine
 10
94.14016578932617
 20
299.3867704515287
 30
0.0
 11
94.0901657893262
 21
299.3867704515287
 31
0.0
  0
LINE
  5
215
330
37
100
AcDbEntity
  8
Sichtbare Kanten(TC_020513_DIN)
100
AcDbLine
 10
101.3401657893261
 20
293.6367704515287
 30
0.0
 11
100.3401657893261
 21
293.6367704515287
 31
0.0
  0
LINE
  5
216
330
37
100
AcDbEntity
  8
Sichtbare Kanten(TC_020513_DIN)
100
AcDbLine
 10
101.3401657893261
 20
301.6367704515287
 30
0.0
 11
100.3401657893262
 21
301.6367704515287
 31
0.0
  0
LINE
  5
217
330
37
100
AcDbEntity
  8
Sichtbare Kanten(TC_020513_DIN)
100
AcDbLine
 10
110.3401657893262
 20
295.1367704515287
 30
0.0
 11
109.8401657893262
 21
294.6367704515286
 31
0.0
  0
LINE
  5
218
330
37
100
AcDbEntity
  8
Sichtbare Kanten(TC_020513_DIN)
100
AcDbLine
 10
110.3401657893262
 20
300.1367704515287
 30
0.0
 11
109.8401657893262
 21
300.6367704515287
 31
0.0
  0
LINE
  5
219
330
37
100
AcDbEntity
  8
Sichtbare Kanten(TC_020513_DIN)
100
AcDbLine
 10
100.2401657893262
 20
293.6367704515287
 30
0.0
 11
94.24016578932617
 21
293.6367704515287
 31
0.0
  0
LINE
  5
21A
330
37
100
AcDbEntity
  8
Sichtbare Kanten(TC_020513_DIN)
100
AcDbLine
 10
100.2401657893261
 20
301.6367704515287
 30
0.0
 11
94.24016578932617
 21
301.6367704515287
 31
0.0
  0
LINE
  5
21B
330
37
100
AcDbEntity
  8
Gewinde(TC_020513_DIN)
100
AcDbLine
 10
109.3401657893261
 20
295.2357704515287
 30
0.0
 11
109.8401657893262
 21
295.2357704515287
 31
0.0
  0
LINE
  5
21C
330
37
100
AcDbEntity
  8
Gewinde(TC_020513_DIN)
100
AcDbLine
 10
109.8401657893262
 20
300.0377704515287
 30
0.0
 11
109.3401657893261
 21
300.0377704515287
 31
0.0
  0
LINE
  5
21D
330
37
100
AcDbEntity
  8
Sichtbare Kanten(TC_020513_DIN)
100
AcDbLine
 10
109.8401657893262
 20
300.6367704515287
 30
0.0
 11
109.8401657893262
 21
294.6367704515287
 31
0.0
  0
LINE
  5
21E
330
37
100
AcDbEntity
  8
Sichtbare Kanten(TC_020513_DIN)
100
AcDbLine
 10
245.8401676966748
 20
297.2367735032865
 30
0.0
 11
245.3401657893262
 21
297.2367735032865
 31
0.0
  0
LINE
  5
21F
330
37
100
AcDbEntity
  8
Sichtbare Kanten(TC_020513_DIN)
100
AcDbLine
 10
245.8401657893262
 20
297.2367704515286
 30
0.0
 11
245.8401657893262
 21
295.8867704515286
 31
0.0
  0
LINE
  5
220
330
37
100
AcDbEntity
  8
Sichtbare Kanten(TC_020513_DIN)
100
AcDbLine
 10
245.3401657893262
 20
298.0367727403471
 30
0.0
 11
245.8401676966748
 21
298.0367727403471
 31
0.0
  0
LINE
  5
221
330
37
100
AcDbEntity
  8
Sichtbare Kanten(TC_020513_DIN)
100
AcDbLine
 10
245.8401657893262
 20
299.3867704515286
 30
0.0
 11
245.8401657893262
 21
298.0367704515287
 31
0.0
  0
ARC
  5
222
330
37
100
AcDbEntity
  8
Sichtbare Kanten(TC_020513_DIN)
100
AcDbCircle
 10
245.3401657893262
 20
295.8867704515287
 30
0.0
 40
0.5
100
AcDbArc
 50
270.0
 51
0.0
  0
ARC
  5
223
330
37
100
AcDbEntity
  8
Sichtbare Kanten(TC_020513_DIN)
100
AcDbCircle
 10
245.3401657893262
 20
299.3867704515287
 30
0.0
 40
0.5
100
AcDbArc
 50
0.0
 51
90.0
  0
LINE
  5
224
330
37
100
AcDbEntity
  8
Sichtbare Kanten(TC_020513_DIN)
100
AcDbLine
 10
245.3401657893262
 20
298.0367704515287
 30
0.0
 11
245.3401657893262
 21
297.2367704515287
 31
0.0
  0
LINE
  5
225
330
37
100
AcDbEntity
  8
Sichtbare Kanten(TC_020513_DIN)
100
AcDbLine
 10
244.3401657893262
 20
295.2367704515286
 30
0.0
 11
244.3401657893262
 21
295.0117704515287
 31
0.0
  0
LINE
  5
226
330
37
100
AcDbEntity
  8
Sichtbare Kanten(TC_020513_DIN)
100
AcDbLine
 10
244.0901657893262
 20
295.2367704515286
 30
0.0
 11
244.0901657893262
 21
295.0117704515287
 31
0.0
  0
LINE
  5
227
330
37
100
AcDbEntity
  8
Sichtbare Kanten(TC_020513_DIN)
100
AcDbLine
 10
244.3401657893262
 20
301.3867704515287
 30
0.0
 11
244.3401657893262
 21
295.2367704515287
 31
0.0
  0
LINE
  5
228
330
37
100
AcDbEntity
  8
Sichtbare Kanten(TC_020513_DIN)
100
AcDbLine
 10
244.0901657893262
 20
301.3867704515287
 30
0.0
 11
244.0901657893262
 21
295.2367704515287
 31
0.0
  0
LINE
  5
229
330
37
100
AcDbEntity
  8
Sichtbare Kanten(TC_020513_DIN)
100
AcDbLine
 10
244.0901657893262
 20
295.0117704515287
 30
0.0
 11
244.3401657893262
 21
295.0117704515287
 31
0.0
  0
LINE
  5
22A
330
37
100
AcDbEntity
  8
Sichtbare Kanten(TC_020513_DIN)
100
AcDbLine
 10
244.0901657893262
 20
301.3867704515287
 30
0.0
 11
244.3401657893262
 21
301.3867704515287
 31
0.0
  0
LINE
  5
22B
330
37
100
AcDbEntity
  8
Sichtbare Kanten(TC_020513_DIN)
100
AcDbLine
 10
228.3401657893262
 20
300.6367704515287
 30
0.0
 11
228.3401657893262
 21
294.6367704515287
 31
0.0
  0
LINE
  5
22C
330
37
100
AcDbEntity
  8
Sichtbare Kanten(TC_020513_DIN)
100
AcDbLine
 10
244.0401657893262
 20
299.8867704515287
 30
0.0
 11
244.0401657893262
 21
295.3867704515287
 31
0.0
  0
LINE
  5
22D
330
37
100
AcDbEntity
  8
Sichtbare Kanten(TC_020513_DIN)
100
AcDbLine
 10
237.8401657893262
 20
301.6367704515287
 30
0.0
 11
237.8401657893262
 21
293.6367704515287
 31
0.0
  0
LINE
  5
22E
330
37
100
AcDbEntity
  8
Sichtbare Kanten(TC_020513_DIN)
100
AcDbLine
 10
227.8401657893262
 20
300.1367704515287
 30
0.0
 11
227.8401657893262
 21
295.1367704515287
 31
0.0
  0
LINE
  5
22F
330
37
100
AcDbEntity
  8
Sichtbare Kanten(TC_020513_DIN)
100
AcDbLine
 10
243.9401657893262
 20
301.6367704515287
 30
0.0
 11
243.9401657893262
 21
293.6367704515287
 31
0.0
  0
LINE
  5
230
330
37
100
AcDbEntity
  8
Sichtbare Kanten(TC_020513_DIN)
100
AcDbLine
 10
237.9401657893262
 20
301.6367704515287
 30
0.0
 11
237.9401657893262
 21
293.6367704515287
 31
0.0
  0
LINE
  5
231
330
37
100
AcDbEntity
  8
Sichtbare Kanten(TC_020513_DIN)
100
AcDbLine
 10
245.3401657893262
 20
295.3867704515287
 30
0.0
 11
244.3401657893262
 21
295.3867704515287
 31
0.0
  0
LINE
  5
232
330
37
100
AcDbEntity
  8
Sichtbare Kanten(TC_020513_DIN)
100
AcDbLine
 10
245.3401657893262
 20
299.8867704515287
 30
0.0
 11
244.3401657893262
 21
299.8867704515287
 31
0.0
  0
LINE
  5
233
330
37
100
AcDbEntity
  8
Sichtbare Kanten(TC_020513_DIN)
100
AcDbLine
 10
228.8401657893262
 20
294.6367704515286
 30
0.0
 11
228.3401657893262
 21
294.6367704515286
 31
0.0
  0
LINE
  5
234
330
37
100
AcDbEntity
  8
Sichtbare Kanten(TC_020513_DIN)
100
AcDbLine
 10
228.8401657893262
 20
300.6367704515287
 30
0.0
 11
228.3401657893262
 21
300.6367704515287
 31
0.0
  0
LINE
  5
235
330
37
100
AcDbEntity
  8
Sichtbare Kanten(TC_020513_DIN)
100
AcDbLine
 10
237.9401657893262
 20
295.3867704515287
 30
0.0
 11
237.8401657893262
 21
295.3867704515287
 31
0.0
  0
LINE
  5
236
330
37
100
AcDbEntity
  8
Sichtbare Kanten(TC_020513_DIN)
100
AcDbLine
 10
237.9401657893262
 20
299.8867704515287
 30
0.0
 11
237.8401657893262
 21
299.8867704515287
 31
0.0
  0
LINE
  5
237
330
37
100
AcDbEntity
  8
Sichtbare Kanten(TC_020513_DIN)
100
AcDbLine
 10
244.0401657893262
 20
295.3867704515287
 30
0.0
 11
243.9401657893262
 21
295.3867704515287
 31
0.0
  0
LINE
  5
238
330
37
100
AcDbEntity
  8
Sichtbare Kanten(TC_020513_DIN)
100
AcDbLine
 10
244.0401657893262
 20
299.8867704515287
 30
0.0
 11
243.9401657893262
 21
299.8867704515287
 31
0.0
  0
LINE
  5
239
330
37
100
AcDbEntity
  8
Sichtbare Kanten(TC_020513_DIN)
100
AcDbLine
 10
244.0901657893262
 20
295.8867704515286
 30
0.0
 11
244.0401657893262
 21
295.8867704515286
 31
0.0
  0
LINE
  5
23A
330
37
100
AcDbEntity
  8
Sichtbare Kanten(TC_020513_DIN)
100
AcDbLine
 10
244.0901657893262
 20
299.3867704515287
 30
0.0
 11
244.0401657893262
 21
299.3867704515287
 31
0.0
  0
LINE
  5
23B
330
37
100
AcDbEntity
  8
Sichtbare Kanten(TC_020513_DIN)
100
AcDbLine
 10
237.8401657893262
 20
293.6367704515287
 30
0.0
 11
236.8401657893262
 21
293.6367704515287
 31
0.0
  0
LINE
  5
23C
330
37
100
AcDbEntity
  8
Sichtbare Kanten(TC_020513_DIN)
100
AcDbLine
 10
237.8401657893262
 20
301.6367704515287
 30
0.0
 11
236.8401657893262
 21
301.6367704515287
 31
0.0
  0
LINE
  5
23D
330
37
100
AcDbEntity
  8
Sichtbare Kanten(TC_020513_DIN)
100
AcDbLine
 10
227.8401657893262
 20
300.1367704515287
 30
0.0
 11
228.3401657893262
 21
300.6367704515287
 31
0.0
  0
LINE
  5
23E
330
37
100
AcDbEntity
  8
Sichtbare Kanten(TC_020513_DIN)
100
AcDbLine
 10
227.8401657893262
 20
295.1367704515287
 30
0.0
 11
228.3401657893262
 21
294.6367704515286
 31
0.0
  0
LINE
  5
23F
330
37
100
AcDbEntity
  8
Sichtbare Kanten(TC_020513_DIN)
100
AcDbLine
 10
243.9401657893262
 20
293.6367704515287
 30
0.0
 11
237.9401657893262
 21
293.6367704515287
 31
0.0
  0
LINE
  5
240
330
37
100
AcDbEntity
  8
Sichtbare Kanten(TC_020513_DIN)
100
AcDbLine
 10
243.9401657893262
 20
301.6367704515287
 30
0.0
 11
237.9401657893262
 21
301.6367704515287
 31
0.0
  0
LINE
  5
241
330
37
100
AcDbEntity
  8
Sichtbare Kanten(TC_020513_DIN)
100
AcDbLine
 10
138.3401657893262
 20
249.1367704515287
 30
0.0
 11
143.8401657893262
 21
249.1367704515287
 31
0.0
  0
LINE
  5
242
330
37
100
AcDbEntity
  8
Sichtbare Kanten(TC_020513_DIN)
100
AcDbLine
 10
143.8401657893262
 20
249.1367704515287
 30
0.0
 11
143.8401657893262
 21
246.6191323613236
 31
0.0
  0
LINE
  5
243
330
37
100
AcDbEntity
  8
Sichtbare Kanten(TC_020513_DIN)
100
AcDbLine
 10
143.8401657893262
 20
246.6191323613236
 30
0.0
 11
143.8401657893262
 21
245.6367704515287
 31
0.0
  0
LINE
  5
244
330
37
100
AcDbEntity
  8
Sichtbare Kanten(TC_020513_DIN)
100
AcDbLine
 10
143.8401657893262
 20
252.1367704515286
 30
0.0
 11
143.8401657893262
 21
249.1367704515287
 31
0.0
  0
LINE
  5
245
330
37
100
AcDbEntity
  8
Sichtbare Kanten(TC_020513_DIN)
100
AcDbLine
 10
138.3401657893262
 20
249.1367704515287
 30
0.0
 11
138.3401657893262
 21
248.1367704515287
 31
0.0
  0
LINE
  5
246
330
37
100
AcDbEntity
  8
Sichtbare Kanten(TC_020513_DIN)
100
AcDbLine
 10
138.3401657893262
 20
243.1367704515287
 30
0.0
 11
138.3401657893262
 21
248.1367704515287
 31
0.0
  0
LINE
  5
247
330
37
100
AcDbEntity
  8
Sichtbare Kanten(TC_020513_DIN)
100
AcDbLine
 10
134.3401657893262
 20
248.1367704515287
 30
0.0
 11
134.3401657893262
 21
243.1367704515287
 31
0.0
  0
LINE
  5
248
330
37
100
AcDbEntity
  8
Sichtbare Kanten(TC_020513_DIN)
100
AcDbLine
 10
138.3401657893262
 20
248.1367704515287
 30
0.0
 11
134.3401657893262
 21
248.1367704515287
 31
0.0
  0
LINE
  5
249
330
37
100
AcDbEntity
  8
Sichtbare Kanten(TC_020513_DIN)
100
AcDbLine
 10
134.3401657893262
 20
248.1367704515287
 30
0.0
 11
134.3401657893262
 21
252.1367704515286
 31
0.0
  0
LINE
  5
24A
330
37
100
AcDbEntity
  8
Sichtbare Kanten(TC_020513_DIN)
100
AcDbLine
 10
199.8401657893262
 20
249.1367704515287
 30
0.0
 11
199.8401657893262
 21
248.1367704515287
 31
0.0
  0
LINE
  5
24B
330
37
100
AcDbEntity
  8
Sichtbare Kanten(TC_020513_DIN)
100
AcDbLine
 10
199.8401657893262
 20
248.1367704515287
 30
0.0
 11
203.8401657893262
 21
248.1367704515287
 31
0.0
  0
LINE
  5
24C
330
37
100
AcDbEntity
  8
Sichtbare Kanten(TC_020513_DIN)
100
AcDbLine
 10
203.8401657893262
 20
248.1367704515287
 30
0.0
 11
203.8401657893262
 21
252.1367704515286
 31
0.0
  0
LINE
  5
24D
330
37
100
AcDbEntity
  8
Sichtbare Kanten(TC_020513_DIN)
100
AcDbLine
 10
203.8401657893262
 20
248.1367704515287
 30
0.0
 11
203.8401657893262
 21
243.1367704515287
 31
0.0
  0
LINE
  5
24E
330
37
100
AcDbEntity
  8
Sichtbare Kanten(TC_020513_DIN)
100
AcDbLine
 10
199.8401657893262
 20
243.1367704515287
 30
0.0
 11
199.8401657893262
 21
248.1367704515287
 31
0.0
  0
LINE
  5
24F
330
37
100
AcDbEntity
  8
Sichtbare Kanten(TC_020513_DIN)
100
AcDbLine
 10
194.3401657893261
 20
246.6191323613236
 30
0.0
 11
194.3401657893261
 21
245.6367704515287
 31
0.0
  0
LINE
  5
250
330
37
100
AcDbEntity
  8
Sichtbare Kanten(TC_020513_DIN)
100
AcDbLine
 10
194.3401657893262
 20
249.1367704515287
 30
0.0
 11
194.3401657893262
 21
246.6191323613236
 31
0.0
  0
LINE
  5
251
330
37
100
AcDbEntity
  8
Sichtbare Kanten(TC_020513_DIN)
100
AcDbLine
 10
194.3401657893262
 20
252.1367704515286
 30
0.0
 11
194.3401657893261
 21
249.1367704515287
 31
0.0
  0
LINE
  5
252
330
37
100
AcDbEntity
  8
Sichtbare Kanten(TC_020513_DIN)
100
AcDbLine
 10
199.8401657893262
 20
249.1367704515287
 30
0.0
 11
194.3401657893261
 21
249.1367704515287
 31
0.0
  0
POLYLINE
  5
253
330
37
100
AcDbEntity
  8
Sichtbare Kanten(TC_020513_DIN)
100
AcDb2dPolyline
 66
     1
 10
0.0
 20
0.0
 30
0.0
 70
   128
  0
VERTEX
  5
254
330
253
100
AcDbEntity
  8
Sichtbare Kanten(TC_020513_DIN)
100
AcDbVertex
100
AcDb2dVertex
 10
195.3452250315747
 20
220.3669936780759
 30
0.0
  0
VERTEX
  5
255
330
253
100
AcDbEntity
  8
Sichtbare Kanten(TC_020513_DIN)
100
AcDbVertex
100
AcDb2dVertex
 10
195.2861806704602
 20
220.4103310231992
 30
0.0
  0
VERTEX
  5
257
330
253
100
AcDbEntity
  8
Sichtbare Kanten(TC_020513_DIN)
100
AcDbVertex
100
AcDb2dVertex
 10
195.2203318430981
 20
220.4592819337674
 30
0.0
  0
VERTEX
  5
258
330
253
100
AcDbEntity
  8
Sichtbare Kanten(TC_020513_DIN)
100
AcDbVertex
100
AcDb2dVertex
 10
195.1488038851819
 20
220.5131335382291
 30
0.0
  0
VERTEX
  5
259
330
253
100
AcDbEntity
  8
Sichtbare Kanten(TC_020513_DIN)
100
AcDbVertex
100
AcDb2dVertex
 10
195.0727245165906
 20
220.5711765413114
 30
0.0
  0
VERTEX
  5
25A
330
253
100
AcDbEntity
  8
Sichtbare Kanten(TC_020513_DIN)
100
AcDbVertex
100
AcDb2dVertex
 10
194.9932190730176
 20
220.6327004556485
 30
0.0
  0
VERTEX
  5
25B
330
253
100
AcDbEntity
  8
Sichtbare Kanten(TC_020513_DIN)
100
AcDbVertex
100
AcDb2dVertex
 10
194.911415274342
 20
220.696993601782
 30
0.0
  0
VERTEX
  5
25C
330
253
100
AcDbEntity
  8
Sichtbare Kanten(TC_020513_DIN)
100
AcDbVertex
100
AcDb2dVertex
 10
194.8284384562573
 20
220.7633478765317
 30
0.0
  0
VERTEX
  5
25D
330
253
100
AcDbEntity
  8
Sichtbare Kanten(TC_020513_DIN)
100
AcDbVertex
100
AcDb2dVertex
 10
194.7461053683362
 20
220.8304412488767
 30
0.0
  0
VERTEX
  5
25E
330
253
100
AcDbEntity
  8
Sichtbare Kanten(TC_020513_DIN)
100
AcDbVertex
100
AcDb2dVertex
 10
194.6681067301831
 20
220.8951075200864
 30
0.0
  0
VERTEX
  5
25F
330
253
100
AcDbEntity
  8
Sichtbare Kanten(TC_020513_DIN)
100
AcDbVertex
100
AcDb2dVertex
 10
194.5948693110547
 20
220.9568686609097
 30
0.0
  0
VERTEX
  5
260
330
253
100
AcDbEntity
  8
Sichtbare Kanten(TC_020513_DIN)
100
AcDbVertex
100
AcDb2dVertex
 10
194.5264169528088
 20
221.0155780439206
 30
0.0
  0
VERTEX
  5
261
330
253
100
AcDbEntity
  8
Sichtbare Kanten(TC_020513_DIN)
100
AcDbVertex
100
AcDb2dVertex
 10
194.4627854182324
 20
221.0710890416928
 30
0.0
  0
VERTEX
  5
262
330
253
100
AcDbEntity
  8
Sichtbare Kanten(TC_020513_DIN)
100
AcDbVertex
100
AcDb2dVertex
 10
194.4040033175549
 20
221.1232562188932
 30
0.0
  0
VERTEX
  5
263
330
253
100
AcDbEntity
  8
Sichtbare Kanten(TC_020513_DIN)
100
AcDbVertex
100
AcDb2dVertex
 10
194.3501016451916
 20
221.1719341401883
 30
0.0
  0
VERTEX
  5
264
330
253
100
AcDbEntity
  8
Sichtbare Kanten(TC_020513_DIN)
100
AcDbVertex
100
AcDb2dVertex
 10
194.3011090113721
 20
221.2169761781522
 30
0.0
  0
VERTEX
  5
265
330
253
100
AcDbEntity
  8
Sichtbare Kanten(TC_020513_DIN)
100
AcDbVertex
100
AcDb2dVertex
 10
194.2570635630688
 20
221.2582321290799
 30
0.0
  0
VERTEX
  5
266
330
253
100
AcDbEntity
  8
Sichtbare Kanten(TC_020513_DIN)
100
AcDbVertex
100
AcDb2dVertex
 10
194.2181083514294
 20
221.2954564218351
 30
0.0
  0
VERTEX
  5
267
330
253
100
AcDbEntity
  8
Sichtbare Kanten(TC_020513_DIN)
100
AcDbVertex
100
AcDb2dVertex
 10
194.1843125178418
 20
221.3285250787564
 30
0.0
  0
VERTEX
  5
268
330
253
100
AcDbEntity
  8
Sichtbare Kanten(TC_020513_DIN)
100
AcDbVertex
100
AcDb2dVertex
 10
194.1556879832349
 20
221.3573796872922
 30
0.0
  0
VERTEX
  5
269
330
253
100
AcDbEntity
  8
Sichtbare Kanten(TC_020513_DIN)
100
AcDbVertex
100
AcDb2dVertex
 10
194.1322442843518
 20
221.3819630269834
 30
0.0
  0
VERTEX
  5
26A
330
253
100
AcDbEntity
  8
Sichtbare Kanten(TC_020513_DIN)
100
AcDbVertex
100
AcDb2dVertex
 10
194.1139909579358
 20
221.4022154931851
 30
0.0
  0
VERTEX
  5
26B
330
253
100
AcDbEntity
  8
Sichtbare Kanten(TC_020513_DIN)
100
AcDbVertex
100
AcDb2dVertex
 10
194.1009423091016
 20
221.4180798654385
 30
0.0
  0
VERTEX
  5
26C
330
253
100
AcDbEntity
  8
Sichtbare Kanten(TC_020513_DIN)
100
AcDbVertex
100
AcDb2dVertex
 10
194.0931031062207
 20
221.4294989232846
 30
0.0
  0
VERTEX
  5
26D
330
253
100
AcDbEntity
  8
Sichtbare Kanten(TC_020513_DIN)
100
AcDbVertex
100
AcDb2dVertex
 10
194.0904900385937
 20
221.4364142541715
 30
0.0
  0
SEQEND
  5
256
330
253
100
AcDbEntity
  8
Sichtbare Kanten(TC_020513_DIN)
  0
LINE
  5
26E
330
37
100
AcDbEntity
  8
Sichtbare Kanten(TC_020513_DIN)
100
AcDbLine
 10
195.3452257563521
 20
220.8890419135003
 30
0.0
 11
195.3452257563521
 21
220.3669939918473
 31
0.0
  0
LINE
  5
26F
330
37
100
AcDbEntity
  8
Sichtbare Kanten(TC_020513_DIN)
100
AcDbLine
 10
195.3452257563521
 20
221.5794295571456
 30
0.0
 11
195.3452257563521
 21
220.8890419135003
 31
0.0
  0
POLYLINE
  5
270
330
37
100
AcDbEntity
  8
Sichtbare Kanten(TC_020513_DIN)
100
AcDb2dPolyline
 66
     1
 10
0.0
 20
0.0
 30
0.0
 70
   128
  0
VERTEX
  5
271
330
270
100
AcDbEntity
  8
Sichtbare Kanten(TC_020513_DIN)
100
AcDbVertex
100
AcDb2dVertex
 10
194.0904900385937
 20
222.8359992627927
 30
0.0
  0
VERTEX
  5
272
330
270
100
AcDbEntity
  8
Sichtbare Kanten(TC_020513_DIN)
100
AcDbVertex
100
AcDb2dVertex
 10
194.0930029704175
 20
222.8280432348081
 30
0.0
  0
VERTEX
  5
274
330
270
100
AcDbEntity
  8
Sichtbare Kanten(TC_020513_DIN)
100
AcDbVertex
100
AcDb2dVertex
 10
194.1005465342603
 20
222.8149504785367
 30
0.0
  0
VERTEX
  5
275
330
270
100
AcDbEntity
  8
Sichtbare Kanten(TC_020513_DIN)
100
AcDbVertex
100
AcDb2dVertex
 10
194.1131231143079
 20
222.7967901353665
 30
0.0
  0
VERTEX
  5
276
330
270
100
AcDbEntity
  8
Sichtbare Kanten(TC_020513_DIN)
100
AcDbVertex
100
AcDb2dVertex
 10
194.1307398631177
 20
222.7736277704068
 30
0.0
  0
VERTEX
  5
277
330
270
100
AcDbEntity
  8
Sichtbare Kanten(TC_020513_DIN)
100
AcDbVertex
100
AcDb2dVertex
 10
194.1533967806897
 20
222.7455337171384
 30
0.0
  0
VERTEX
  5
278
330
270
100
AcDbEntity
  8
Sichtbare Kanten(TC_020513_DIN)
100
AcDbVertex
100
AcDb2dVertex
 10
194.1810962512097
 20
222.7125735406705
 30
0.0
  0
VERTEX
  5
279
330
270
100
AcDbEntity
  8
Sichtbare Kanten(TC_020513_DIN)
100
AcDbVertex
100
AcDb2dVertex
 10
194.2138478114209
 20
222.6748163823911
 30
0.0
  0
VERTEX
  5
27A
330
270
100
AcDbEntity
  8
Sichtbare Kanten(TC_020513_DIN)
100
AcDbVertex
100
AcDb2dVertex
 10
194.2516514613232
 20
222.6323301915952
 30
0.0
  0
VERTEX
  5
27B
330
270
100
AcDbEntity
  8
Sichtbare Kanten(TC_020513_DIN)
100
AcDbVertex
100
AcDb2dVertex
 10
194.2945095851025
 20
222.5851829175778
 30
0.0
  0
VERTEX
  5
27C
330
270
100
AcDbEntity
  8
Sichtbare Kanten(TC_020513_DIN)
100
AcDbVertex
100
AcDb2dVertex
 10
194.3424269511304
 20
222.5334413175412
 30
0.0
  0
VERTEX
  5
27D
330
270
100
AcDbEntity
  8
Sichtbare Kanten(TC_020513_DIN)
100
AcDbVertex
100
AcDb2dVertex
 10
194.3954107119641
 20
222.4771733407803
 30
0.0
  0
VERTEX
  5
27E
330
270
100
AcDbEntity
  8
Sichtbare Kanten(TC_020513_DIN)
100
AcDbVertex
100
AcDb2dVertex
 10
194.4534107997021
 20
222.4165470723935
 30
0.0
  0
VERTEX
  5
27F
330
270
100
AcDbEntity
  8
Sichtbare Kanten(TC_020513_DIN)
100
AcDbVertex
100
AcDb2dVertex
 10
194.5163604571423
 20
222.3518390779325
 30
0.0
  0
VERTEX
  5
280
330
270
100
AcDbEntity
  8
Sichtbare Kanten(TC_020513_DIN)
100
AcDbVertex
100
AcDb2dVertex
 10
194.5842620684705
 20
222.2832031373807
 30
0.0
  0
VERTEX
  5
281
330
270
100
AcDbEntity
  8
Sichtbare Kanten(TC_020513_DIN)
100
AcDbVertex
100
AcDb2dVertex
 10
194.6571227862439
 20
222.2107954149076
 30
0.0
  0
VERTEX
  5
282
330
270
100
AcDbEntity
  8
Sichtbare Kanten(TC_020513_DIN)
100
AcDbVertex
100
AcDb2dVertex
 10
194.7349521472058
 20
222.1347708825895
 30
0.0
  0
VERTEX
  5
283
330
270
100
AcDbEntity
  8
Sichtbare Kanten(TC_020513_DIN)
100
AcDbVertex
100
AcDb2dVertex
 10
194.8175689532361
 20
222.0554680948087
 30
0.0
  0
VERTEX
  5
284
330
270
100
AcDbEntity
  8
Sichtbare Kanten(TC_020513_DIN)
100
AcDbVertex
100
AcDb2dVertex
 10
194.9014756037793
 20
221.9764454488584
 30
0.0
  0
VERTEX
  5
285
330
270
100
AcDbEntity
  8
Sichtbare Kanten(TC_020513_DIN)
100
AcDbVertex
100
AcDb2dVertex
 10
194.9844619586072
 20
221.8996639375516
 30
0.0
  0
VERTEX
  5
286
330
270
100
AcDbEntity
  8
Sichtbare Kanten(TC_020513_DIN)
100
AcDbVertex
100
AcDb2dVertex
 10
195.0653764559827
 20
221.8259818677732
 30
0.0
  0
VERTEX
  5
287
330
270
100
AcDbEntity
  8
Sichtbare Kanten(TC_020513_DIN)
100
AcDbVertex
100
AcDb2dVertex
 10
195.1430627657971
 20
221.7562575464078
 30
0.0
  0
VERTEX
  5
288
330
270
100
AcDbEntity
  8
Sichtbare Kanten(TC_020513_DIN)
100
AcDbVertex
100
AcDb2dVertex
 10
195.2163693263135
 20
221.6913516645261
 30
0.0
  0
VERTEX
  5
289
330
270
100
AcDbEntity
  8
Sichtbare Kanten(TC_020513_DIN)
100
AcDbVertex
100
AcDb2dVertex
 10
195.2841421916089
 20
221.6321225290128
 30
0.0
  0
VERTEX
  5
28A
330
270
100
AcDbEntity
  8
Sichtbare Kanten(TC_020513_DIN)
100
AcDbVertex
100
AcDb2dVertex
 10
195.3452250315747
 20
221.5794296388455
 30
0.0
  0
SEQEND
  5
273
330
270
100
AcDbEntity
  8
Sichtbare Kanten(TC_020513_DIN)
  0
LINE
  5
28B
330
37
100
AcDbEntity
  8
Sichtbare Kanten(TC_020513_DIN)
100
AcDbLine
 10
194.0904896951586
 20
222.8387907615718
 30
0.0
 11
194.0904896951586
 21
221.5794295571456
 31
0.0
  0
LINE
  5
28C
330
37
100
AcDbEntity
  8
Sichtbare Kanten(TC_020513_DIN)
100
AcDbLine
 10
144.0898418834937
 20
222.8387907615718
 30
0.0
 11
194.0904896951586
 21
222.8387907615719
 31
0.0
  0
ELLIPSE
  5
28D
330
37
100
AcDbEntity
  8
Sichtbare Kanten(TC_020513_DIN)
100
AcDbEllipse
 10
202.0904896951587
 20
222.5176575171248
 30
0.0
 11
8.000000000000021
 21
0.0000000000004213
 31
0.0
210
0.0
220
0.0
230
1.0
 40
0.4999999999999999
 41
3.709259006446721
 42
4.712388980384463
  0
ELLIPSE
  5
28E
330
37
100
AcDbEntity
  8
Sichtbare Kanten(TC_020513_DIN)
100
AcDbEllipse
 10
202.0904896951587
 20
223.730093082423
 30
0.0
 11
8.000000000000031
 21
0.0000000000004241
 31
0.0
210
0.0
220
0.0
230
1.0
 40
0.5000000000000007
 41
3.709259006446718
 42
4.712388980384463
  0
LINE
  5
28F
330
37
100
AcDbEntity
  8
Sichtbare Kanten(TC_020513_DIN)
100
AcDbLine
 10
238.1901657893262
 20
226.6582963126985
 30
0.0
 11
238.1901657893262
 21
229.4581646047021
 31
0.0
  0
LINE
  5
290
330
37
100
AcDbEntity
  8
Sichtbare Kanten(TC_020513_DIN)
100
AcDbLine
 10
238.1901657893262
 20
229.4581646047021
 30
0.0
 11
238.1901657893262
 21
266.5357499370951
 31
0.0
  0
LINE
  5
291
330
37
100
AcDbEntity
  8
Sichtbare Kanten(TC_020513_DIN)
100
AcDbLine
 10
238.1901657893262
 20
266.6367704515287
 30
0.0
 11
238.1901657893262
 21
266.5357499370951
 31
0.0
  0
LINE
  5
292
330
37
100
AcDbEntity
  8
Sichtbare Kanten(TC_020513_DIN)
100
AcDbLine
 10
239.5901657893262
 20
266.6367704515287
 30
0.0
 11
239.5901657893262
 21
266.5357499370951
 31
0.0
  0
LINE
  5
293
330
37
100
AcDbEntity
  8
Sichtbare Kanten(TC_020513_DIN)
100
AcDbLine
 10
239.5901657893262
 20
229.4581646047021
 30
0.0
 11
239.5901657893262
 21
266.5357499370951
 31
0.0
  0
LINE
  5
294
330
37
100
AcDbEntity
  8
Sichtbare Kanten(TC_020513_DIN)
100
AcDbLine
 10
239.5901657893262
 20
226.6582963126985
 30
0.0
 11
239.5901657893262
 21
229.4581646047021
 31
0.0
  0
LINE
  5
295
330
37
100
AcDbEntity
  8
Sichtbare Kanten(TC_020513_DIN)
100
AcDbLine
 10
238.1901657893262
 20
266.5357499370951
 30
0.0
 11
239.5901657893262
 21
266.5357499370951
 31
0.0
  0
LINE
  5
296
330
37
100
AcDbEntity
  8
Sichtbare Kanten(TC_020513_DIN)
100
AcDbLine
 10
238.1901657893262
 20
229.4581646047021
 30
0.0
 11
239.5901657893262
 21
229.4581646047021
 31
0.0
  0
LINE
  5
297
330
37
100
AcDbEntity
  8
Sichtbare Kanten(TC_020513_DIN)
100
AcDbLine
 10
202.0904896951587
 20
219.730093082423
 30
0.0
 11
230.1901657893262
 21
219.730093082423
 31
0.0
  0
LINE
  5
298
330
37
100
AcDbEntity
  8
Sichtbare Kanten(TC_020513_DIN)
100
AcDbLine
 10
202.0904896951587
 20
218.5176575171248
 30
0.0
 11
230.1901657893262
 21
218.5176575171248
 31
0.0
  0
ELLIPSE
  5
299
330
37
100
AcDbEntity
  8
Sichtbare Kanten(TC_020513_DIN)
100
AcDbEllipse
 10
188.0904896951587
 20
216.8476575171248
 30
0.0
 11
5.999999999999973
 21
-0.0000000000000191
 31
0.0
210
0.0
220
0.0
230
1.0
 40
0.5000000000000016
 41
4.712388980384679
 42
6.283185307179596
  0
LINE
  5
29A
330
37
100
AcDbEntity
  8
Sichtbare Kanten(TC_020513_DIN)
100
AcDbLine
 10
194.0904896951586
 20
218.060093082423
 30
0.0
 11
194.0904896951586
 21
216.8476575171248
 31
0.0
  0
ELLIPSE
  5
29B
330
37
100
AcDbEntity
  8
Sichtbare Kanten(TC_020513_DIN)
100
AcDbEllipse
 10
188.0904896951587
 20
218.060093082423
 30
0.0
 11
5.999999999999988
 21
-0.0000000000000146
 31
0.0
210
0.0
220
0.0
230
1.0
 40
0.5000000000000007
 41
4.712388980384679
 42
6.283185307179602
  0
LINE
  5
29C
330
37
100
AcDbEntity
  8
Sichtbare Kanten(TC_020513_DIN)
100
AcDbLine
 10
194.0904896951586
 20
218.060093082423
 30
0.0
 11
194.0904896951586
 21
221.5794295571456
 31
0.0
  0
LINE
  5
29D
330
37
100
AcDbEntity
  8
Sichtbare Kanten(TC_020513_DIN)
100
AcDbLine
 10
150.0898418834937
 20
213.8476575171247
 30
0.0
 11
188.0904896951586
 21
213.8476575171248
 31
0.0
  0
LINE
  5
29E
330
37
100
AcDbEntity
  8
Sichtbare Kanten(TC_020513_DIN)
100
AcDbLine
 10
150.0898418834937
 20
215.0600930824229
 30
0.0
 11
188.0904896951586
 21
215.060093082423
 31
0.0
  0
LINE
  5
29F
330
37
100
AcDbEntity
  8
Sichtbare Kanten(TC_020513_DIN)
100
AcDbLine
 10
107.9901657893261
 20
209.5176575171248
 30
0.0
 11
230.1901657893262
 21
209.5176575171248
 31
0.0
  0
LINE
  5
2A0
330
37
100
AcDbEntity
  8
Sichtbare Kanten(TC_020513_DIN)
100
AcDbLine
 10
238.1901657893262
 20
266.6367704515287
 30
0.0
 11
239.5901657893262
 21
266.6367704515287
 31
0.0
  0
ELLIPSE
  5
2A1
330
37
100
AcDbEntity
  8
Sichtbare Kanten(TC_020513_DIN)
100
AcDbEllipse
 10
230.1901657893262
 20
226.6582963126985
 30
0.0
 11
9.399999999999995
 21
-0.0000000000000089
 31
0.0
210
0.0
220
0.0
230
1.0
 40
0.8660254037844476
 41
4.71238898038469
 42
6.283185307179587
  0
ELLIPSE
  5
2A2
330
37
100
AcDbEntity
  8
Sichtbare Kanten(TC_020513_DIN)
100
AcDbEllipse
 10
230.1901657893262
 20
217.6582963126986
 30
0.0
 11
9.399999999999996
 21
-0.0000000000000066
 31
0.0
210
0.0
220
0.0
230
1.0
 40
0.866025403784439
 41
4.712388980384689
 42
6.283185307179587
  0
LINE
  5
2A3
330
37
100
AcDbEntity
  8
Sichtbare Kanten(TC_020513_DIN)
100
AcDbLine
 10
239.5901657893262
 20
226.6582963126985
 30
0.0
 11
239.5901657893262
 21
217.6582963126985
 31
0.0
  0
ELLIPSE
  5
2A4
330
37
100
AcDbEntity
  8
Sichtbare Kanten(TC_020513_DIN)
100
AcDbEllipse
 10
230.1901657893262
 20
226.6582963126985
 30
0.0
 11
7.999999999999998
 21
-0.0000000000000108
 31
0.0
210
0.0
220
0.0
230
1.0
 40
0.8660254037844479
 41
4.71238898038469
 42
6.283185307179588
  0
POLYLINE
  5
2A5
330
37
100
AcDbEntity
  8
Sichtbare Kanten(TC_020513_DIN)
100
AcDb2dPolyline
 66
     1
 10
0.0
 20
0.0
 30
0.0
 70
   128
  0
VERTEX
  5
2A6
330
2A5
100
AcDbEntity
  8
Sichtbare Kanten(TC_020513_DIN)
100
AcDbVertex
100
AcDb2dVertex
 10
144.0898415400586
 20
221.4364142541715
 30
0.0
  0
VERTEX
  5
2A7
330
2A5
100
AcDbEntity
  8
Sichtbare Kanten(TC_020513_DIN)
100
AcDbVertex
100
AcDb2dVertex
 10
144.0872284724316
 20
221.429471505148
 30
0.0
  0
VERTEX
  5
2A9
330
2A5
100
AcDbEntity
  8
Sichtbare Kanten(TC_020513_DIN)
100
AcDbVertex
100
AcDb2dVertex
 10
144.0793916537366
 20
221.4180023794003
 30
0.0
  0
VERTEX
  5
2AA
330
2A5
100
AcDbEntity
  8
Sichtbare Kanten(TC_020513_DIN)
100
AcDbVertex
100
AcDb2dVertex
 10
144.0663501574597
 20
221.4020784025021
 30
0.0
  0
VERTEX
  5
2AB
330
2A5
100
AcDbEntity
  8
Sichtbare Kanten(TC_020513_DIN)
100
AcDbVertex
100
AcDb2dVertex
 10
144.0481135203442
 20
221.3817746763059
 30
0.0
  0
VERTEX
  5
2AC
330
2A5
100
AcDbEntity
  8
Sichtbare Kanten(TC_020513_DIN)
100
AcDbVertex
100
AcDb2dVertex
 10
144.0246960475049
 20
221.357165110571
 30
0.0
  0
VERTEX
  5
2AD
330
2A5
100
AcDbEntity
  8
Sichtbare Kanten(TC_020513_DIN)
100
AcDbVertex
100
AcDb2dVertex
 10
143.9961120440564
 20
221.3283212308713
 30
0.0
  0
VERTEX
  5
2AE
330
2A5
100
AcDbEntity
  8
Sichtbare Kanten(TC_020513_DIN)
100
AcDbVertex
100
AcDb2dVertex
 10
143.9623734309277
 20
221.2953181390592
 30
0.0
  0
VERTEX
  5
2AF
330
2A5
100
AcDbEntity
  8
Sichtbare Kanten(TC_020513_DIN)
100
AcDbVertex
100
AcDb2dVertex
 10
143.9234968974194
 20
221.2582285528012
 30
0.0
  0
VERTEX
  5
2B0
330
2A5
100
AcDbEntity
  8
Sichtbare Kanten(TC_020513_DIN)
100
AcDbVertex
100
AcDb2dVertex
 10
143.8794919802746
 20
221.2171275739499
 30
0.0
  0
VERTEX
  5
2B1
330
2A5
100
AcDbEntity
  8
Sichtbare Kanten(TC_020513_DIN)
100
AcDbVertex
100
AcDb2dVertex
 10
143.8303777529797
 20
221.1720867280789
 30
0.0
  0
VERTEX
  5
2B2
330
2A5
100
AcDbEntity
  8
Sichtbare Kanten(TC_020513_DIN)
100
AcDbVertex
100
AcDb2dVertex
 10
143.7761685206494
 20
221.1231882695981
 30
0.0
  0
VERTEX
  5
2B3
330
2A5
100
AcDbEntity
  8
Sichtbare Kanten(TC_020513_DIN)
100
AcDbVertex
100
AcDb2dVertex
 10
143.7170192553601
 20
221.070711148245
 30
0.0
  0
VERTEX
  5
2B4
330
2A5
100
AcDbEntity
  8
Sichtbare Kanten(TC_020513_DIN)
100
AcDbVertex
100
AcDb2dVertex
 10
143.6530253245434
 20
221.0148818616696
 30
0.0
  0
VERTEX
  5
2B5
330
2A5
100
AcDbEntity
  8
Sichtbare Kanten(TC_020513_DIN)
100
AcDbVertex
100
AcDb2dVertex
 10
143.5842177226147
 20
220.9558577661344
 30
0.0
  0
VERTEX
  5
2B6
330
2A5
100
AcDbEntity
  8
Sichtbare Kanten(TC_020513_DIN)
100
AcDbVertex
100
AcDb2dVertex
 10
143.5106274439893
 20
220.8937974099942
 30
0.0
  0
VERTEX
  5
2B7
330
2A5
100
AcDbEntity
  8
Sichtbare Kanten(TC_020513_DIN)
100
AcDbVertex
100
AcDb2dVertex
 10
143.4322950198254
 20
220.8288569574186
 30
0.0
  0
VERTEX
  5
2B8
330
2A5
100
AcDbEntity
  8
Sichtbare Kanten(TC_020513_DIN)
100
AcDbVertex
100
AcDb2dVertex
 10
143.3499190165601
 20
220.7617647771665
 30
0.0
  0
VERTEX
  5
2B9
330
2A5
100
AcDbEntity
  8
Sichtbare Kanten(TC_020513_DIN)
100
AcDbVertex
100
AcDb2dVertex
 10
143.2672283007702
 20
220.6956763391324
 30
0.0
  0
VERTEX
  5
2BA
330
2A5
100
AcDbEntity
  8
Sichtbare Kanten(TC_020513_DIN)
100
AcDbVertex
100
AcDb2dVertex
 10
143.1857320620618
 20
220.6316466455289
 30
0.0
  0
VERTEX
  5
2BB
330
2A5
100
AcDbEntity
  8
Sichtbare Kanten(TC_020513_DIN)
100
AcDbVertex
100
AcDb2dVertex
 10
143.1065413310132
 20
220.5703778390714
 30
0.0
  0
VERTEX
  5
2BC
330
2A5
100
AcDbEntity
  8
Sichtbare Kanten(TC_020513_DIN)
100
AcDbVertex
100
AcDb2dVertex
 10
143.0307719065747
 20
220.512575638754
 30
0.0
  0
VERTEX
  5
2BD
330
2A5
100
AcDbEntity
  8
Sichtbare Kanten(TC_020513_DIN)
100
AcDbVertex
100
AcDb2dVertex
 10
142.959534819325
 20
220.4589421872922
 30
0.0
  0
VERTEX
  5
2BE
330
2A5
100
AcDbEntity
  8
Sichtbare Kanten(TC_020513_DIN)
100
AcDbVertex
100
AcDb2dVertex
 10
142.8939410998425
 20
220.4101808194943
 30
0.0
  0
VERTEX
  5
2BF
330
2A5
100
AcDbEntity
  8
Sichtbare Kanten(TC_020513_DIN)
100
AcDbVertex
100
AcDb2dVertex
 10
142.8351065470776
 20
220.3669936780759
 30
0.0
  0
SEQEND
  5
2A8
330
2A5
100
AcDbEntity
  8
Sichtbare Kanten(TC_020513_DIN)
  0
POLYLINE
  5
2C0
330
37
100
AcDbEntity
  8
Sichtbare Kanten(TC_020513_DIN)
100
AcDb2dPolyline
 66
     1
 10
0.0
 20
0.0
 30
0.0
 70
   128
  0
VERTEX
  5
2C1
330
2C0
100
AcDbEntity
  8
Sichtbare Kanten(TC_020513_DIN)
100
AcDbVertex
100
AcDb2dVertex
 10
142.8351065470776
 20
221.5794296388455
 30
0.0
  0
VERTEX
  5
2C2
330
2C0
100
AcDbEntity
  8
Sichtbare Kanten(TC_020513_DIN)
100
AcDbVertex
100
AcDb2dVertex
 10
142.8961583926282
 20
221.6320963029691
 30
0.0
  0
VERTEX
  5
2C4
330
2C0
100
AcDbEntity
  8
Sichtbare Kanten(TC_020513_DIN)
100
AcDbVertex
100
AcDb2dVertex
 10
142.9638931109509
 20
221.6912920598813
 30
0.0
  0
VERTEX
  5
2C5
330
2C0
100
AcDbEntity
  8
Sichtbare Kanten(TC_020513_DIN)
100
AcDbVertex
100
AcDb2dVertex
 10
143.0371591403088
 20
221.7561609868833
 30
0.0
  0
VERTEX
  5
2C6
330
2C0
100
AcDbEntity
  8
Sichtbare Kanten(TC_020513_DIN)
100
AcDbVertex
100
AcDb2dVertex
 10
143.1148025347791
 20
221.8258435849973
 30
0.0
  0
VERTEX
  5
2C7
330
2C0
100
AcDbEntity
  8
Sichtbare Kanten(TC_020513_DIN)
100
AcDbVertex
100
AcDb2dVertex
 10
143.1956717326245
 20
221.8994827394315
 30
0.0
  0
VERTEX
  5
2C8
330
2C0
100
AcDbEntity
  8
Sichtbare Kanten(TC_020513_DIN)
100
AcDbVertex
100
AcDb2dVertex
 10
143.2786151721082
 20
221.9762201433011
 30
0.0
  0
VERTEX
  5
2C9
330
2C0
100
AcDbEntity
  8
Sichtbare Kanten(TC_020513_DIN)
100
AcDbVertex
100
AcDb2dVertex
 10
143.3624789073071
 20
222.0551998739072
 30
0.0
  0
VERTEX
  5
2CA
330
2C0
100
AcDbEntity
  8
Sichtbare Kanten(TC_020513_DIN)
100
AcDbVertex
100
AcDb2dVertex
 10
143.4450647189221
 20
222.1344573621579
 30
0.0
  0
VERTEX
  5
2CB
330
2C0
100
AcDbEntity
  8
Sichtbare Kanten(TC_020513_DIN)
100
AcDbVertex
100
AcDb2dVertex
 10
143.5228463961682
 20
222.2104008321591
 30
0.0
  0
VERTEX
  5
2CC
330
2C0
100
AcDbEntity
  8
Sichtbare Kanten(TC_020513_DIN)
100
AcDbVertex
100
AcDb2dVertex
 10
143.5956403567395
 20
222.2826941137143
 30
0.0
  0
VERTEX
  5
2CD
330
2C0
100
AcDbEntity
  8
Sichtbare Kanten(TC_020513_DIN)
100
AcDbVertex
100
AcDb2dVertex
 10
143.6634537531934
 20
222.3511977319547
 30
0.0
  0
VERTEX
  5
2CE
330
2C0
100
AcDbEntity
  8
Sichtbare Kanten(TC_020513_DIN)
100
AcDbVertex
100
AcDb2dVertex
 10
143.7262937380872
 20
222.4157698278256
 30
0.0
  0
VERTEX
  5
2CF
330
2C0
100
AcDbEntity
  8
Sichtbare Kanten(TC_020513_DIN)
100
AcDbVertex
100
AcDb2dVertex
 10
143.7841626956067
 20
222.4762697343656
 30
0.0
  0
VERTEX
  5
2D0
330
2C0
100
AcDbEntity
  8
Sichtbare Kanten(TC_020513_DIN)
100
AcDbVertex
100
AcDb2dVertex
 10
143.8370725466809
 20
222.5325567846128
 30
0.0
  0
VERTEX
  5
2D1
330
2C0
100
AcDbEntity
  8
Sichtbare Kanten(TC_020513_DIN)
100
AcDbVertex
100
AcDb2dVertex
 10
143.8850256754956
 20
222.5844903116056
 30
0.0
  0
VERTEX
  5
2D2
330
2C0
100
AcDbEntity
  8
Sichtbare Kanten(TC_020513_DIN)
100
AcDbVertex
100
AcDb2dVertex
 10
143.9280220820508
 20
222.6319224958249
 30
0.0
  0
VERTEX
  5
2D3
330
2C0
100
AcDbEntity
  8
Sichtbare Kanten(TC_020513_DIN)
100
AcDbVertex
100
AcDb2dVertex
 10
143.9659735514721
 20
222.6746339921781
 30
0.0
  0
VERTEX
  5
2D4
330
2C0
100
AcDbEntity
  8
Sichtbare Kanten(TC_020513_DIN)
100
AcDbVertex
100
AcDb2dVertex
 10
143.9988538577161
 20
222.7125353936978
 30
0.0
  0
VERTEX
  5
2D5
330
2C0
100
AcDbEntity
  8
Sichtbare Kanten(TC_020513_DIN)
100
AcDbVertex
100
AcDb2dVertex
 10
144.0266701533398
 20
222.7455742482968
 30
0.0
  0
VERTEX
  5
2D6
330
2C0
100
AcDbEntity
  8
Sichtbare Kanten(TC_020513_DIN)
100
AcDbVertex
100
AcDb2dVertex
 10
144.0494200541577
 20
222.7736981038876
 30
0.0
  0
VERTEX
  5
2D7
330
2C0
100
AcDbEntity
  8
Sichtbare Kanten(TC_020513_DIN)
100
AcDbVertex
100
AcDb2dVertex
 10
144.067110712727
 20
222.7968545083829
 30
0.0
  0
VERTEX
  5
2D8
330
2C0
100
AcDbEntity
  8
Sichtbare Kanten(TC_020513_DIN)
100
AcDbVertex
100
AcDb2dVertex
 10
144.0797421290479
 20
222.814992201788
 30
0.0
  0
VERTEX
  5
2D9
330
2C0
100
AcDbEntity
  8
Sichtbare Kanten(TC_020513_DIN)
100
AcDbVertex
100
AcDb2dVertex
 10
144.0873166873059
 20
222.8280575399228
 30
0.0
  0
VERTEX
  5
2DA
330
2C0
100
AcDbEntity
  8
Sichtbare Kanten(TC_020513_DIN)
100
AcDbVertex
100
AcDb2dVertex
 10
144.0898415400586
 20
222.8359992627927
 30
0.0
  0
SEQEND
  5
2C3
330
2C0
100
AcDbEntity
  8
Sichtbare Kanten(TC_020513_DIN)
  0
LINE
  5
2DB
330
37
100
AcDbEntity
  8
Sichtbare Kanten(TC_020513_DIN)
100
AcDbLine
 10
142.8351058223002
 20
220.8890419135004
 30
0.0
 11
142.8351058223002
 21
221.5794295571456
 31
0.0
  0
LINE
  5
2DC
330
37
100
AcDbEntity
  8
Sichtbare Kanten(TC_020513_DIN)
100
AcDbLine
 10
142.8351058223002
 20
220.3669939918473
 30
0.0
 11
142.8351058223002
 21
220.8890419135004
 31
0.0
  0
ELLIPSE
  5
2DD
330
37
100
AcDbEntity
  8
Sichtbare Kanten(TC_020513_DIN)
100
AcDbEllipse
 10
150.0898418834936
 20
216.8476575171248
 30
0.0
 11
-5.99999999999997
 21
-0.0000000000000201
 31
0.0
210
0.0
220
0.0
230
1.0
 40
0.500000000000001
 41
0.0
 42
1.570796326794903
  0
LINE
  5
2DE
330
37
100
AcDbEntity
  8
Sichtbare Kanten(TC_020513_DIN)
100
AcDbLine
 10
144.0898418834937
 20
218.060093082423
 30
0.0
 11
144.0898418834937
 21
221.5794295571455
 31
0.0
  0
ELLIPSE
  5
2DF
330
37
100
AcDbEntity
  8
Sichtbare Kanten(TC_020513_DIN)
100
AcDbEllipse
 10
150.0898418834936
 20
218.060093082423
 30
0.0
 11
-5.999999999999987
 21
-0.0000000000000145
 31
0.0
210
0.0
220
0.0
230
1.0
 40
0.5
 41
0.0
 42
1.5707963267949
  0
LINE
  5
2E0
330
37
100
AcDbEntity
  8
Sichtbare Kanten(TC_020513_DIN)
100
AcDbLine
 10
144.0898418834936
 20
221.5794295571456
 30
0.0
 11
144.0898418834936
 21
222.8387907615718
 31
0.0
  0
LINE
  5
2E1
330
37
100
AcDbEntity
  8
Sichtbare Kanten(TC_020513_DIN)
100
AcDbLine
 10
144.0898418834937
 20
218.060093082423
 30
0.0
 11
144.0898418834937
 21
216.8476575171247
 31
0.0
  0
ELLIPSE
  5
2E2
330
37
100
AcDbEntity
  8
Sichtbare Kanten(TC_020513_DIN)
100
AcDbEllipse
 10
136.0898418834937
 20
223.7300930824229
 30
0.0
 11
-7.999999999999966
 21
0.0000000000003986
 31
0.0
210
0.0
220
0.0
230
1.0
 40
0.4999999999999954
 41
1.570796326795122
 42
2.573926300732871
  0
ELLIPSE
  5
2E3
330
37
100
AcDbEntity
  8
Sichtbare Kanten(TC_020513_DIN)
100
AcDbEllipse
 10
136.0898418834937
 20
222.5176575171247
 30
0.0
 11
-7.999999999999967
 21
0.0000000000003991
 31
0.0
210
0.0
220
0.0
230
1.0
 40
0.4999999999999963
 41
1.570796326795122
 42
2.573926300732871
  0
LINE
  5
2E4
330
37
100
AcDbEntity
  8
Sichtbare Kanten(TC_020513_DIN)
100
AcDbLine
 10
136.0898418834937
 20
219.730093082423
 30
0.0
 11
107.9901657893261
 21
219.730093082423
 31
0.0
  0
LINE
  5
2E5
330
37
100
AcDbEntity
  8
Sichtbare Kanten(TC_020513_DIN)
100
AcDbLine
 10
99.99016578932618
 20
266.6367704515287
 30
0.0
 11
99.99016578932618
 21
266.5357499370951
 31
0.0
  0
LINE
  5
2E6
330
37
100
AcDbEntity
  8
Sichtbare Kanten(TC_020513_DIN)
100
AcDbLine
 10
99.99016578932618
 20
229.4581646047021
 30
0.0
 11
99.99016578932618
 21
266.5357499370951
 31
0.0
  0
LINE
  5
2E7
330
37
100
AcDbEntity
  8
Sichtbare Kanten(TC_020513_DIN)
100
AcDbLine
 10
99.99016578932618
 20
226.6582963126985
 30
0.0
 11
99.99016578932618
 21
229.4581646047021
 31
0.0
  0
LINE
  5
2E8
330
37
100
AcDbEntity
  8
Sichtbare Kanten(TC_020513_DIN)
100
AcDbLine
 10
98.59016578932617
 20
226.6582963126985
 30
0.0
 11
98.59016578932617
 21
229.4581646047021
 31
0.0
  0
LINE
  5
2E9
330
37
100
AcDbEntity
  8
Sichtbare Kanten(TC_020513_DIN)
100
AcDbLine
 10
98.59016578932617
 20
229.4581646047021
 30
0.0
 11
98.59016578932617
 21
266.5357499370951
 31
0.0
  0
LINE
  5
2EA
330
37
100
AcDbEntity
  8
Sichtbare Kanten(TC_020513_DIN)
100
AcDbLine
 10
98.59016578932617
 20
266.6367704515287
 30
0.0
 11
98.59016578932617
 21
266.5357499370951
 31
0.0
  0
LINE
  5
2EB
330
37
100
AcDbEntity
  8
Sichtbare Kanten(TC_020513_DIN)
100
AcDbLine
 10
99.99016578932618
 20
229.4581646047021
 30
0.0
 11
98.59016578932617
 21
229.4581646047021
 31
0.0
  0
LINE
  5
2EC
330
37
100
AcDbEntity
  8
Sichtbare Kanten(TC_020513_DIN)
100
AcDbLine
 10
99.99016578932618
 20
266.5357499370951
 30
0.0
 11
98.59016578932617
 21
266.5357499370951
 31
0.0
  0
LINE
  5
2ED
330
37
100
AcDbEntity
  8
Sichtbare Kanten(TC_020513_DIN)
100
AcDbLine
 10
136.0898418834937
 20
218.5176575171248
 30
0.0
 11
107.9901657893261
 21
218.5176575171248
 31
0.0
  0
LINE
  5
2EE
330
37
100
AcDbEntity
  8
Sichtbare Kanten(TC_020513_DIN)
100
AcDbLine
 10
98.59016578932617
 20
266.6367704515287
 30
0.0
 11
99.99016578932618
 21
266.6367704515287
 31
0.0
  0
ELLIPSE
  5
2EF
330
37
100
AcDbEntity
  8
Sichtbare Kanten(TC_020513_DIN)
100
AcDbEllipse
 10
107.9901657893261
 20
217.6582963126985
 30
0.0
 11
-9.399999999999986
 21
0.0000000000000089
 31
0.0
210
0.0
220
0.0
230
1.0
 40
0.8660254037844408
 41
0.0000000000000017
 42
1.570796326794899
  0
ELLIPSE
  5
2F0
330
37
100
AcDbEntity
  8
Sichtbare Kanten(TC_020513_DIN)
100
AcDbEllipse
 10
107.9901657893261
 20
226.6582963126985
 30
0.0
 11
-9.399999999999984
 21
0.0000000000000004
 31
0.0
210
0.0
220
0.0
230
1.0
 40
0.8660254037844357
 41
0.0
 42
1.570796326794896
  0
LINE
  5
2F1
330
37
100
AcDbEntity
  8
Sichtbare Kanten(TC_020513_DIN)
100
AcDbLine
 10
98.59016578932617
 20
217.6582963126985
 30
0.0
 11
98.59016578932617
 21
226.6582963126985
 31
0.0
  0
ELLIPSE
  5
2F2
330
37
100
AcDbEntity
  8
Sichtbare Kanten(TC_020513_DIN)
100
AcDbEllipse
 10
107.9901657893262
 20
226.6582963126985
 30
0.0
 11
-7.999999999999998
 21
0.0000000000000044
 31
0.0
210
0.0
220
0.0
230
1.0
 40
0.8660254037844358
 41
0.0000000000000014
 42
1.570796326794899
  0
POLYLINE
  5
2F3
330
37
100
AcDbEntity
  8
Sichtbare Kanten(TC_020513_DIN)
100
AcDb2dPolyline
 66
     1
 10
0.0
 20
0.0
 30
0.0
 70
   128
  0
VERTEX
  5
2F4
330
2F3
100
AcDbEntity
  8
Sichtbare Kanten(TC_020513_DIN)
100
AcDbVertex
100
AcDb2dVertex
 10
216.0901638819776
 20
150.4047174577542
 30
0.0
  0
VERTEX
  5
2F5
330
2F3
100
AcDbEntity
  8
Sichtbare Kanten(TC_020513_DIN)
100
AcDbVertex
100
AcDb2dVertex
 10
216.0931011988721
 20
150.4867000703641
 30
0.0
  0
VERTEX
  5
2F7
330
2F3
100
AcDbEntity
  8
Sichtbare Kanten(TC_020513_DIN)
100
AcDbVertex
100
AcDb2dVertex
 10
216.1016318156324
 20
150.5704469804593
 30
0.0
  0
VERTEX
  5
2F8
330
2F3
100
AcDbEntity
  8
Sichtbare Kanten(TC_020513_DIN)
100
AcDbVertex
100
AcDb2dVertex
 10
216.1153408839307
 20
150.6552190904446
 30
0.0
  0
VERTEX
  5
2F9
330
2F3
100
AcDbEntity
  8
Sichtbare Kanten(TC_020513_DIN)
100
AcDbVertex
100
AcDb2dVertex
 10
216.1338135554395
 20
150.7402677659817
 30
0.0
  0
VERTEX
  5
2FA
330
2F3
100
AcDbEntity
  8
Sichtbare Kanten(TC_020513_DIN)
100
AcDbVertex
100
AcDb2dVertex
 10
216.1566445185743
 20
150.8248396043607
 30
0.0
  0
VERTEX
  5
2FB
330
2F3
100
AcDbEntity
  8
Sichtbare Kanten(TC_020513_DIN)
100
AcDbVertex
100
AcDb2dVertex
 10
216.1834093882642
 20
150.908185971243
 30
0.0
  0
VERTEX
  5
2FC
330
2F3
100
AcDbEntity
  8
Sichtbare Kanten(TC_020513_DIN)
100
AcDbVertex
100
AcDb2dVertex
 10
216.2137028529248
 20
150.9895582322903
 30
0.0
  0
VERTEX
  5
2FD
330
2F3
100
AcDbEntity
  8
Sichtbare Kanten(TC_020513_DIN)
100
AcDbVertex
100
AcDb2dVertex
 10
216.247105295857
 20
151.0682125215359
 30
0.0
  0
VERTEX
  5
2FE
330
2F3
100
AcDbEntity
  8
Sichtbare Kanten(TC_020513_DIN)
100
AcDbVertex
100
AcDb2dVertex
 10
216.2832066371045
 20
151.1433954362698
 30
0.0
  0
VERTEX
  5
2FF
330
2F3
100
AcDbEntity
  8
Sichtbare Kanten(TC_020513_DIN)
100
AcDbVertex
100
AcDb2dVertex
 10
216.3218733622632
 20
151.2150211458035
 30
0.0
  0
VERTEX
  5
300
330
2F3
100
AcDbEntity
  8
Sichtbare Kanten(TC_020513_DIN)
100
AcDbVertex
100
AcDb2dVertex
 10
216.3641402079663
 20
151.2859411363431
 30
0.0
  0
VERTEX
  5
301
330
2F3
100
AcDbEntity
  8
Sichtbare Kanten(TC_020513_DIN)
100
AcDbVertex
100
AcDb2dVertex
 10
216.4098355128369
 20
151.356503499014
 30
0.0
  0
VERTEX
  5
302
330
2F3
100
AcDbEntity
  8
Sichtbare Kanten(TC_020513_DIN)
100
AcDbVertex
100
AcDb2dVertex
 10
216.4585921122632
 20
151.4265985612698
 30
0.0
  0
VERTEX
  5
303
330
2F3
100
AcDbEntity
  8
Sichtbare Kanten(TC_020513_DIN)
100
AcDbVertex
100
AcDb2dVertex
 10
216.5100285365186
 20
151.4961261873074
 30
0.0
  0
VERTEX
  5
304
330
2F3
100
AcDbEntity
  8
Sichtbare Kanten(TC_020513_DIN)
100
AcDbVertex
100
AcDb2dVertex
 10
216.5637823893628
 20
151.5649767045804
 30
0.0
  0
VERTEX
  5
305
330
2F3
100
AcDbEntity
  8
Sichtbare Kanten(TC_020513_DIN)
100
AcDbVertex
100
AcDb2dVertex
 10
216.6194722010693
 20
151.6330404405423
 30
0.0
  0
VERTEX
  5
306
330
2F3
100
AcDbEntity
  8
Sichtbare Kanten(TC_020513_DIN)
100
AcDbVertex
100
AcDb2dVertex
 10
216.6767308070264
 20
151.7002220277615
 30
0.0
  0
VERTEX
  5
307
330
2F3
100
AcDbEntity
  8
Sichtbare Kanten(TC_020513_DIN)
100
AcDbVertex
100
AcDb2dVertex
 10
216.7351862742505
 20
151.7664070253201
 30
0.0
  0
VERTEX
  5
308
330
2F3
100
AcDbEntity
  8
Sichtbare Kanten(TC_020513_DIN)
100
AcDbVertex
100
AcDb2dVertex
 10
216.7944619013868
 20
151.8314952974149
 30
0.0
  0
VERTEX
  5
309
330
2F3
100
AcDbEntity
  8
Sichtbare Kanten(TC_020513_DIN)
100
AcDbVertex
100
AcDb2dVertex
 10
216.8541905238233
 20
151.8953819398709
 30
0.0
  0
VERTEX
  5
30A
330
2F3
100
AcDbEntity
  8
Sichtbare Kanten(TC_020513_DIN)
100
AcDbVertex
100
AcDb2dVertex
 10
216.9139954402051
 20
151.9579572801419
 30
0.0
  0
VERTEX
  5
30B
330
2F3
100
AcDbEntity
  8
Sichtbare Kanten(TC_020513_DIN)
100
AcDbVertex
100
AcDb2dVertex
 10
216.9735094859204
 20
152.019116414053
 30
0.0
  0
VERTEX
  5
30C
330
2F3
100
AcDbEntity
  8
Sichtbare Kanten(TC_020513_DIN)
100
AcDbVertex
100
AcDb2dVertex
 10
217.0323559596143
 20
152.0787544374295
 30
0.0
  0
VERTEX
  5
30D
330
2F3
100
AcDbEntity
  8
Sichtbare Kanten(TC_020513_DIN)
100
AcDbVertex
100
AcDb2dVertex
 10
217.0901676966748
 20
152.1367712144681
 30
0.0
  0
SEQEND
  5
2F6
330
2F3
100
AcDbEntity
  8
Sichtbare Kanten(TC_020513_DIN)
  0
LINE
  5
30E
330
37
100
AcDbEntity
  8
Sichtbare Kanten(TC_020513_DIN)
100
AcDbLine
 10
216.0901657893262
 20
150.4047196439597
 30
0.0
 11
216.0901657893262
 21
150.1367704515286
 31
0.0
  0
ARC
  5
30F
330
37
100
AcDbEntity
  8
Sichtbare Kanten(TC_020513_DIN)
100
AcDbCircle
 10
217.0901657893262
 20
150.1367704515286
 30
0.0
 40
0.9999999999999964
100
AcDbArc
 50
90.0
 51
180.0
  0
LINE
  5
310
330
37
100
AcDbEntity
  8
Sichtbare Kanten(TC_020513_DIN)
100
AcDbLine
 10
217.0901657893262
 20
151.1367704515286
 30
0.0
 11
218.5901657893262
 21
151.1367704515286
 31
0.0
  0
LINE
  5
311
330
37
100
AcDbEntity
  8
Sichtbare Kanten(TC_020513_DIN)
100
AcDbLine
 10
237.0901657893262
 20
151.1367704515286
 30
0.0
 11
218.5901657893262
 21
151.1367704515286
 31
0.0
  0
ARC
  5
312
330
37
100
AcDbEntity
  8
Sichtbare Kanten(TC_020513_DIN)
100
AcDbCircle
 10
238.5901657893262
 20
150.1367704515286
 30
0.0
 40
0.9999999999999964
100
AcDbArc
 50
0.0
 51
90.0
  0
LINE
  5
313
330
37
100
AcDbEntity
  8
Sichtbare Kanten(TC_020513_DIN)
100
AcDbLine
 10
237.0901657893262
 20
151.1367704515286
 30
0.0
 11
238.5901657893262
 21
151.1367704515286
 31
0.0
  0
LINE
  5
314
330
37
100
AcDbEntity
  8
Sichtbare Kanten(TC_020513_DIN)
100
AcDbLine
 10
239.5901657893262
 20
150.1367704515286
 30
0.0
 11
239.5901657893262
 21
152.1367704515286
 31
0.0
  0
LINE
  5
315
330
37
100
AcDbEntity
  8
Sichtbare Kanten(TC_020513_DIN)
100
AcDbLine
 10
239.5901657893262
 20
152.1367704515286
 30
0.0
 11
239.5901657893262
 21
176.6367704515286
 31
0.0
  0
LINE
  5
316
330
37
100
AcDbEntity
  8
Sichtbare Kanten(TC_020513_DIN)
100
AcDbLine
 10
239.5901657893262
 20
202.6367704515287
 30
0.0
 11
239.5901657893262
 21
176.6367704515286
 31
0.0
  0
ARC
  5
317
330
37
100
AcDbEntity
  8
Sichtbare Kanten(TC_020513_DIN)
100
AcDbCircle
 10
99.59016578932617
 20
150.1367704515286
 30
0.0
 40
0.9999999999999698
100
AcDbArc
 50
90.0
 51
180.0
  0
LINE
  5
318
330
37
100
AcDbEntity
  8
Sichtbare Kanten(TC_020513_DIN)
100
AcDbLine
 10
98.59016578932617
 20
152.1367704515286
 30
0.0
 11
98.59016578932617
 21
150.1367704515286
 31
0.0
  0
LINE
  5
319
330
37
100
AcDbEntity
  8
Sichtbare Kanten(TC_020513_DIN)
100
AcDbLine
 10
99.59016578932621
 20
151.1367704515286
 30
0.0
 11
101.0901657893262
 21
151.1367704515286
 31
0.0
  0
LINE
  5
31A
330
37
100
AcDbEntity
  8
Sichtbare Kanten(TC_020513_DIN)
100
AcDbLine
 10
98.59016578932617
 20
176.6367704515286
 30
0.0
 11
98.59016578932617
 21
152.1367704515286
 31
0.0
  0
LINE
  5
31B
330
37
100
AcDbEntity
  8
Sichtbare Kanten(TC_020513_DIN)
100
AcDbLine
 10
119.5901657893262
 20
151.1367704515286
 30
0.0
 11
101.0901657893262
 21
151.1367704515286
 31
0.0
  0
LINE
  5
31C
330
37
100
AcDbEntity
  8
Sichtbare Kanten(TC_020513_DIN)
100
AcDbLine
 10
98.59016578932617
 20
176.6367704515286
 30
0.0
 11
98.59016578932617
 21
202.6367704515287
 31
0.0
  0
ARC
  5
31D
330
37
100
AcDbEntity
  8
Sichtbare Kanten(TC_020513_DIN)
100
AcDbCircle
 10
121.0901657893262
 20
150.1367704515286
 30
0.0
 40
0.9999999999999964
100
AcDbArc
 50
0.0
 51
90.0
  0
LINE
  5
31E
330
37
100
AcDbEntity
  8
Sichtbare Kanten(TC_020513_DIN)
100
AcDbLine
 10
119.5901657893262
 20
151.1367704515286
 30
0.0
 11
121.0901657893262
 21
151.1367704515286
 31
0.0
  0
POLYLINE
  5
31F
330
37
100
AcDbEntity
  8
Sichtbare Kanten(TC_020513_DIN)
100
AcDb2dPolyline
 66
     1
 10
0.0
 20
0.0
 30
0.0
 70
   128
  0
VERTEX
  5
320
330
31F
100
AcDbEntity
  8
Sichtbare Kanten(TC_020513_DIN)
100
AcDbVertex
100
AcDb2dVertex
 10
121.0901638819775
 20
152.1367712144681
 30
0.0
  0
VERTEX
  5
321
330
31F
100
AcDbEntity
  8
Sichtbare Kanten(TC_020513_DIN)
100
AcDbVertex
100
AcDb2dVertex
 10
121.1479756190381
 20
152.0787544374295
 30
0.0
  0
VERTEX
  5
323
330
31F
100
AcDbEntity
  8
Sichtbare Kanten(TC_020513_DIN)
100
AcDbVertex
100
AcDb2dVertex
 10
121.2068220927319
 20
152.019116414053
 30
0.0
  0
VERTEX
  5
324
330
31F
100
AcDbEntity
  8
Sichtbare Kanten(TC_020513_DIN)
100
AcDbVertex
100
AcDb2dVertex
 10
121.2663361384473
 20
151.9579572801419
 30
0.0
  0
VERTEX
  5
325
330
31F
100
AcDbEntity
  8
Sichtbare Kanten(TC_020513_DIN)
100
AcDbVertex
100
AcDb2dVertex
 10
121.3261410548291
 20
151.8953819398709
 30
0.0
  0
VERTEX
  5
326
330
31F
100
AcDbEntity
  8
Sichtbare Kanten(TC_020513_DIN)
100
AcDbVertex
100
AcDb2dVertex
 10
121.3858696772656
 20
151.8314952974149
 30
0.0
  0
VERTEX
  5
327
330
31F
100
AcDbEntity
  8
Sichtbare Kanten(TC_020513_DIN)
100
AcDbVertex
100
AcDb2dVertex
 10
121.4451453044018
 20
151.7664070253201
 30
0.0
  0
VERTEX
  5
328
330
31F
100
AcDbEntity
  8
Sichtbare Kanten(TC_020513_DIN)
100
AcDbVertex
100
AcDb2dVertex
 10
121.503600771626
 20
151.7002220277615
 30
0.0
  0
VERTEX
  5
329
330
31F
100
AcDbEntity
  8
Sichtbare Kanten(TC_020513_DIN)
100
AcDbVertex
100
AcDb2dVertex
 10
121.560859377583
 20
151.6330404405423
 30
0.0
  0
VERTEX
  5
32A
330
31F
100
AcDbEntity
  8
Sichtbare Kanten(TC_020513_DIN)
100
AcDbVertex
100
AcDb2dVertex
 10
121.6165491892895
 20
151.5649767045804
 30
0.0
  0
VERTEX
  5
32B
330
31F
100
AcDbEntity
  8
Sichtbare Kanten(TC_020513_DIN)
100
AcDbVertex
100
AcDb2dVertex
 10
121.6703030421338
 20
151.4961261873074
 30
0.0
  0
VERTEX
  5
32C
330
31F
100
AcDbEntity
  8
Sichtbare Kanten(TC_020513_DIN)
100
AcDbVertex
100
AcDb2dVertex
 10
121.7217394663892
 20
151.4265985612698
 30
0.0
  0
VERTEX
  5
32D
330
31F
100
AcDbEntity
  8
Sichtbare Kanten(TC_020513_DIN)
100
AcDbVertex
100
AcDb2dVertex
 10
121.7704960658154
 20
151.356503499014
 30
0.0
  0
VERTEX
  5
32E
330
31F
100
AcDbEntity
  8
Sichtbare Kanten(TC_020513_DIN)
100
AcDbVertex
100
AcDb2dVertex
 10
121.816191370686
 20
151.2859411363431
 30
0.0
  0
VERTEX
  5
32F
330
31F
100
AcDbEntity
  8
Sichtbare Kanten(TC_020513_DIN)
100
AcDbVertex
100
AcDb2dVertex
 10
121.8584582163892
 20
151.2150211458035
 30
0.0
  0
VERTEX
  5
330
330
31F
100
AcDbEntity
  8
Sichtbare Kanten(TC_020513_DIN)
100
AcDbVertex
100
AcDb2dVertex
 10
121.8971249415478
 20
151.1433954362698
 30
0.0
  0
VERTEX
  5
331
330
31F
100
AcDbEntity
  8
Sichtbare Kanten(TC_020513_DIN)
100
AcDbVertex
100
AcDb2dVertex
 10
121.9332262827954
 20
151.0682125215359
 30
0.0
  0
VERTEX
  5
332
330
31F
100
AcDbEntity
  8
Sichtbare Kanten(TC_020513_DIN)
100
AcDbVertex
100
AcDb2dVertex
 10
121.9666287257275
 20
150.9895582322903
 30
0.0
  0
VERTEX
  5
333
330
31F
100
AcDbEntity
  8
Sichtbare Kanten(TC_020513_DIN)
100
AcDbVertex
100
AcDb2dVertex
 10
121.9969221903882
 20
150.908185971243
 30
0.0
  0
VERTEX
  5
334
330
31F
100
AcDbEntity
  8
Sichtbare Kanten(TC_020513_DIN)
100
AcDbVertex
100
AcDb2dVertex
 10
122.0236870600781
 20
150.8248396043607
 30
0.0
  0
VERTEX
  5
335
330
31F
100
AcDbEntity
  8
Sichtbare Kanten(TC_020513_DIN)
100
AcDbVertex
100
AcDb2dVertex
 10
122.0465180232129
 20
150.7402677659817
 30
0.0
  0
VERTEX
  5
336
330
31F
100
AcDbEntity
  8
Sichtbare Kanten(TC_020513_DIN)
100
AcDbVertex
100
AcDb2dVertex
 10
122.0649906947217
 20
150.6552190904446
 30
0.0
  0
VERTEX
  5
337
330
31F
100
AcDbEntity
  8
Sichtbare Kanten(TC_020513_DIN)
100
AcDbVertex
100
AcDb2dVertex
 10
122.07869976302
 20
150.5704469804593
 30
0.0
  0
VERTEX
  5
338
330
31F
100
AcDbEntity
  8
Sichtbare Kanten(TC_020513_DIN)
100
AcDbVertex
100
AcDb2dVertex
 10
122.0872303797803
 20
150.4867000703641
 30
0.0
  0
VERTEX
  5
339
330
31F
100
AcDbEntity
  8
Sichtbare Kanten(TC_020513_DIN)
100
AcDbVertex
100
AcDb2dVertex
 10
122.0901676966748
 20
150.4047174577542
 30
0.0
  0
SEQEND
  5
322
330
31F
100
AcDbEntity
  8
Sichtbare Kanten(TC_020513_DIN)
  0
LINE
  5
33A
330
37
100
AcDbEntity
  8
Sichtbare Kanten(TC_020513_DIN)
100
AcDbLine
 10
122.0901657893262
 20
150.1367704515286
 30
0.0
 11
122.0901657893262
 21
150.4047196439598
 31
0.0
  0
ARC
  5
33B
330
37
100
AcDbEntity
  8
Sichtbare Kanten(TC_020513_DIN)
100
AcDbCircle
 10
238.5901657893262
 20
202.6367704515287
 30
0.0
 40
1.0
100
AcDbArc
 50
0.0
 51
90.0
  0
ARC
  5
33C
330
37
100
AcDbEntity
  8
Sichtbare Kanten(TC_020513_DIN)
100
AcDbCircle
 10
99.59016578932619
 20
202.6367704515287
 30
0.0
 40
1.0
100
AcDbArc
 50
90.0
 51
180.0
  0
LINE
  5
33D
330
37
100
AcDbEntity
  8
Sichtbare Kanten(TC_020513_DIN)
100
AcDbLine
 10
239.5901657893262
 20
144.1367704515286
 30
0.0
 11
239.5901657893262
 21
150.1367704515286
 31
0.0
  0
LINE
  5
33E
330
37
100
AcDbEntity
  8
Sichtbare Kanten(TC_020513_DIN)
100
AcDbLine
 10
237.0901657893262
 20
144.1367704515286
 30
0.0
 11
239.5901657893261
 21
144.1367704515286
 31
0.0
  0
LINE
  5
33F
330
37
100
AcDbEntity
  8
Sichtbare Kanten(TC_020513_DIN)
100
AcDbLine
 10
237.0901657893262
 20
144.1367704515286
 30
0.0
 11
218.5901657893262
 21
144.1367704515286
 31
0.0
  0
LINE
  5
340
330
37
100
AcDbEntity
  8
Sichtbare Kanten(TC_020513_DIN)
100
AcDbLine
 10
216.0901657893262
 20
144.1367704515286
 30
0.0
 11
216.0901657893262
 21
150.1367704515286
 31
0.0
  0
LINE
  5
341
330
37
100
AcDbEntity
  8
Sichtbare Kanten(TC_020513_DIN)
100
AcDbLine
 10
216.0901657893262
 20
144.1367704515286
 30
0.0
 11
218.5901657893262
 21
144.1367704515286
 31
0.0
  0
LINE
  5
342
330
37
100
AcDbEntity
  8
Sichtbare Kanten(TC_020513_DIN)
100
AcDbLine
 10
122.0901657893262
 20
144.1367704515286
 30
0.0
 11
119.5901657893262
 21
144.1367704515286
 31
0.0
  0
LINE
  5
343
330
37
100
AcDbEntity
  8
Sichtbare Kanten(TC_020513_DIN)
100
AcDbLine
 10
122.0901657893262
 20
144.1367704515286
 30
0.0
 11
122.0901657893262
 21
150.1367704515286
 31
0.0
  0
LINE
  5
344
330
37
100
AcDbEntity
  8
Sichtbare Kanten(TC_020513_DIN)
100
AcDbLine
 10
101.0901657893262
 20
144.1367704515286
 30
0.0
 11
119.5901657893262
 21
144.1367704515286
 31
0.0
  0
LINE
  5
345
330
37
100
AcDbEntity
  8
Sichtbare Kanten(TC_020513_DIN)
100
AcDbLine
 10
98.59016578932619
 20
144.1367704515286
 30
0.0
 11
98.59016578932619
 21
150.1367704515286
 31
0.0
  0
LINE
  5
346
330
37
100
AcDbEntity
  8
Sichtbare Kanten(TC_020513_DIN)
100
AcDbLine
 10
101.0901657893262
 20
144.1367704515286
 30
0.0
 11
98.59016578932623
 21
144.1367704515286
 31
0.0
  0
ARC
  5
347
330
37
100
AcDbEntity
  8
Sichtbare Kanten(TC_020513_DIN)
100
AcDbCircle
 10
100.3401657893261
 20
152.1367704515286
 30
0.0
 40
0.9999999999999964
100
AcDbArc
 50
270.0
 51
0.0
  0
ARC
  5
348
330
37
100
AcDbEntity
  8
Sichtbare Kanten(TC_020513_DIN)
100
AcDbCircle
 10
237.8401657893263
 20
152.1367704515286
 30
0.0
 40
0.9999999999999964
100
AcDbArc
 50
180.0
 51
270.0
  0
ARC
  5
349
330
37
100
AcDbEntity
  8
Sichtbare Kanten(TC_020513_DIN)
100
AcDbCircle
 10
100.3401657893261
 20
204.6367704515286
 30
0.0
 40
1.0
100
AcDbArc
 50
270.0
 51
0.0
  0
ARC
  5
34A
330
37
100
AcDbEntity
  8
Sichtbare Kanten(TC_020513_DIN)
100
AcDbCircle
 10
237.8401657893263
 20
204.6367704515286
 30
0.0
 40
1.0
100
AcDbArc
 50
180.0
 51
270.0
  0
LINE
  5
34B
330
37
100
AcDbEntity
  8
Sichtbare Kanten(TC_020513_DIN)
100
AcDbLine
 10
101.3401657893261
 20
152.1367704515286
 30
0.0
 11
101.3401657893261
 21
211.9047647884954
 31
0.0
  0
LINE
  5
34C
330
37
100
AcDbEntity
  8
Sichtbare Kanten(TC_020513_DIN)
100
AcDbLine
 10
101.3401657893261
 20
222.8069166897583
 30
0.0
 11
101.3401657893261
 21
237.6367704515287
 31
0.0
  0
LINE
  5
34D
330
37
100
AcDbEntity
  8
Sichtbare Kanten(TC_020513_DIN)
100
AcDbLine
 10
236.8401657893263
 20
152.1367704515286
 30
0.0
 11
236.8401657893263
 21
211.9047647884955
 31
0.0
  0
LINE
  5
34E
330
37
100
AcDbEntity
  8
Sichtbare Kanten(TC_020513_DIN)
100
AcDbLine
 10
236.8401657893263
 20
222.8069166897583
 30
0.0
 11
236.8401657893263
 21
237.6367704515287
 31
0.0
  0
LINE
  5
34F
330
37
100
AcDbEntity
  8
Sichtbare Kanten(TC_020513_DIN)
100
AcDbLine
 10
169.0901657893262
 20
224.8117704515287
 30
0.0
 11
159.3401657893262
 21
230.4367704515287
 31
0.0
  0
LINE
  5
350
330
37
100
AcDbEntity
  8
Sichtbare Kanten(TC_020513_DIN)
100
AcDbLine
 10
159.3401657893262
 20
230.4367704515287
 30
0.0
 11
169.0901657893262
 21
236.0617704515286
 31
0.0
  0
LINE
  5
351
330
37
100
AcDbEntity
  8
Sichtbare Kanten(TC_020513_DIN)
100
AcDbLine
 10
169.0901657893262
 20
236.0617704515286
 30
0.0
 11
178.8401657893262
 21
230.4367704515287
 31
0.0
  0
LINE
  5
352
330
37
100
AcDbEntity
  8
Sichtbare Kanten(TC_020513_DIN)
100
AcDbLine
 10
178.8401657893262
 20
230.4367704515287
 30
0.0
 11
169.0901657893262
 21
224.8117704515287
 31
0.0
  0
LINE
  5
353
330
37
100
AcDbEntity
  8
Sichtbare Kanten(TC_020513_DIN)
100
AcDbLine
 10
171.7151657893262
 20
227.8413375590117
 30
0.0
 11
171.7151657893262
 21
233.0322033440456
 31
0.0
  0
ARC
  5
354
330
37
100
AcDbEntity
  8
Sichtbare Kanten(TC_020513_DIN)
100
AcDbCircle
 10
172.0901657893262
 20
227.8413375590117
 30
0.0
 40
0.375000000000004
100
AcDbArc
 50
180.0
 51
299.9816393688477
  0
LINE
  5
355
330
37
100
AcDbEntity
  8
Sichtbare Kanten(TC_020513_DIN)
100
AcDbLine
 10
173.7775617093848
 20
228.381902579628
 30
0.0
 11
172.2775617093847
 21
227.5165179642435
 31
0.0
  0
ARC
  5
356
330
37
100
AcDbEntity
  8
Sichtbare Kanten(TC_020513_DIN)
100
AcDbCircle
 10
173.5901657893262
 20
228.7067221743963
 30
0.0
 40
0.375000000000002
100
AcDbArc
 50
299.9816393688477
 51
119.9816393688477
  0
LINE
  5
357
330
37
100
AcDbEntity
  8
Sichtbare Kanten(TC_020513_DIN)
100
AcDbLine
 10
172.4651657893261
 20
228.4906163384291
 30
0.0
 11
173.4027698692676
 21
229.0315417691645
 31
0.0
  0
LINE
  5
358
330
37
100
AcDbEntity
  8
Sichtbare Kanten(TC_020513_DIN)
100
AcDbLine
 10
172.4651657893261
 20
230.0617704515286
 30
0.0
 11
172.4651657893261
 21
228.4906163384291
 31
0.0
  0
LINE
  5
359
330
37
100
AcDbEntity
  8
Sichtbare Kanten(TC_020513_DIN)
100
AcDbLine
 10
173.5901657893262
 20
230.0617704515286
 30
0.0
 11
172.4651657893261
 21
230.0617704515286
 31
0.0
  0
ARC
  5
35A
330
37
100
AcDbEntity
  8
Sichtbare Kanten(TC_020513_DIN)
100
AcDbCircle
 10
173.5901657893262
 20
230.4367704515287
 30
0.0
 40
0.3750000000000009
100
AcDbArc
 50
270.0
 51
90.0
  0
LINE
  5
35B
330
37
100
AcDbEntity
  8
Sichtbare Kanten(TC_020513_DIN)
100
AcDbLine
 10
172.4651657893261
 20
230.8117704515286
 30
0.0
 11
173.5901657893262
 21
230.8117704515286
 31
0.0
  0
LINE
  5
35C
330
37
100
AcDbEntity
  8
Sichtbare Kanten(TC_020513_DIN)
100
AcDbLine
 10
172.4651657893261
 20
232.3829245646282
 30
0.0
 11
172.4651657893261
 21
230.8117704515286
 31
0.0
  0
LINE
  5
35D
330
37
100
AcDbEntity
  8
Sichtbare Kanten(TC_020513_DIN)
100
AcDbLine
 10
173.4027698692676
 20
231.8419991338928
 30
0.0
 11
172.4651657893261
 21
232.3829245646282
 31
0.0
  0
ARC
  5
35E
330
37
100
AcDbEntity
  8
Sichtbare Kanten(TC_020513_DIN)
100
AcDbCircle
 10
173.5901657893262
 20
232.166818728661
 30
0.0
 40
0.3750000000000007
100
AcDbArc
 50
240.0183606311523
 51
60.01836063115228
  0
LINE
  5
35F
330
37
100
AcDbEntity
  8
Sichtbare Kanten(TC_020513_DIN)
100
AcDbLine
 10
172.2775617093847
 20
233.3570229388139
 30
0.0
 11
173.7775617093848
 21
232.4916383234293
 31
0.0
  0
ARC
  5
360
330
37
100
AcDbEntity
  8
Sichtbare Kanten(TC_020513_DIN)
100
AcDbCircle
 10
172.0901657893262
 20
233.0322033440456
 30
0.0
 40
0.3750000000000003
100
AcDbArc
 50
60.0183606311523
 51
180.0
  0
ARC
  5
361
330
37
100
AcDbEntity
  8
Sichtbare Kanten(TC_020513_DIN)
100
AcDbCircle
 10
164.5151657893262
 20
232.1235494978918
 30
0.0
 40
0.3749999999999998
100
AcDbArc
 50
0.0
 51
180.0
  0
LINE
  5
362
330
37
100
AcDbEntity
  8
Sichtbare Kanten(TC_020513_DIN)
100
AcDbLine
 10
164.1401657893261
 20
228.7499914051655
 30
0.0
 11
164.1401657893261
 21
232.1235494978918
 31
0.0
  0
ARC
  5
363
330
37
100
AcDbEntity
  8
Sichtbare Kanten(TC_020513_DIN)
100
AcDbCircle
 10
164.5151657893262
 20
228.7499914051655
 30
0.0
 40
0.3749999999999998
100
AcDbArc
 50
180.0
 51
0.0
  0
LINE
  5
364
330
37
100
AcDbEntity
  8
Sichtbare Kanten(TC_020513_DIN)
100
AcDbLine
 10
164.8901657893262
 20
232.1235494978918
 30
0.0
 11
164.8901657893262
 21
228.7499914051655
 31
0.0
  0
LINE
  5
365
330
37
100
AcDbEntity
  8
Sichtbare Kanten(TC_020513_DIN)
100
AcDbLine
 10
160.0905823403164
 20
230.4367704515287
 30
0.0
 11
169.0901657893262
 21
225.2447030770999
 31
0.0
  0
LINE
  5
366
330
37
100
AcDbEntity
  8
Sichtbare Kanten(TC_020513_DIN)
100
AcDbLine
 10
169.0901657893262
 20
225.2447030770999
 30
0.0
 11
178.089749238336
 21
230.4367704515287
 31
0.0
  0
LINE
  5
367
330
37
100
AcDbEntity
  8
Sichtbare Kanten(TC_020513_DIN)
100
AcDbLine
 10
178.089749238336
 20
230.4367704515287
 30
0.0
 11
169.0901657893262
 21
235.6288378259574
 31
0.0
  0
LINE
  5
368
330
37
100
AcDbEntity
  8
Sichtbare Kanten(TC_020513_DIN)
100
AcDbLine
 10
169.0901657893262
 20
235.6288378259574
 30
0.0
 11
160.0905823403164
 21
230.4367704515287
 31
0.0
  0
LINE
  5
369
330
37
100
AcDbEntity
  8
Sichtbare Kanten(TC_020513_DIN)
100
AcDbLine
 10
165.6401657893262
 20
227.8846067897809
 30
0.0
 11
165.6401657893262
 21
232.9889341132764
 31
0.0
  0
ARC
  5
36A
330
37
100
AcDbEntity
  8
Sichtbare Kanten(TC_020513_DIN)
100
AcDbCircle
 10
166.0151657893262
 20
227.8846067897809
 30
0.0
 40
0.3749999999999984
100
AcDbArc
 50
180.0
 51
240.0183606311523
  0
LINE
  5
36B
330
37
100
AcDbEntity
  8
Sichtbare Kanten(TC_020513_DIN)
100
AcDbLine
 10
168.9027698692676
 20
225.7857487334742
 30
0.0
 11
165.8277698692676
 21
227.5597871950126
 31
0.0
  0
ARC
  5
36C
330
37
100
AcDbEntity
  8
Sichtbare Kanten(TC_020513_DIN)
100
AcDbCircle
 10
169.0901657893262
 20
226.1105683282425
 30
0.0
 40
0.3750000000000045
100
AcDbArc
 50
240.0183606311523
 51
60.01836063115228
  0
LINE
  5
36D
330
37
100
AcDbEntity
  8
Sichtbare Kanten(TC_020513_DIN)
100
AcDbLine
 10
166.3901657893262
 20
228.101193261506
 30
0.0
 11
169.2775617093847
 21
226.4353879230106
 31
0.0
  0
LINE
  5
36E
330
37
100
AcDbEntity
  8
Sichtbare Kanten(TC_020513_DIN)
100
AcDbLine
 10
166.3901657893262
 20
232.9889341132764
 30
0.0
 11
166.3901657893262
 21
228.101193261506
 31
0.0
  0
ARC
  5
36F
330
37
100
AcDbEntity
  8
Sichtbare Kanten(TC_020513_DIN)
100
AcDbCircle
 10
166.0151657893262
 20
232.9889341132764
 30
0.0
 40
0.3749999999999998
100
AcDbArc
 50
0.0
 51
180.0
  0
LINE
  5
370
330
37
100
AcDbEntity
  8
Sichtbare Kanten(TC_020513_DIN)
100
AcDbLine
 10
170.2151657893262
 20
232.7403502652147
 30
0.0
 11
169.0901657893262
 21
231.1867704515286
 31
0.0
  0
LINE
  5
371
330
37
100
AcDbEntity
  8
Sichtbare Kanten(TC_020513_DIN)
100
AcDbLine
 10
170.2151657893262
 20
226.975952943627
 30
0.0
 11
170.2151657893262
 21
232.7403502652147
 31
0.0
  0
ARC
  5
372
330
37
100
AcDbEntity
  8
Sichtbare Kanten(TC_020513_DIN)
100
AcDbCircle
 10
170.5901657893261
 20
226.975952943627
 30
0.0
 40
0.375
100
AcDbArc
 50
180.0
 51
0.0
  0
LINE
  5
373
330
37
100
AcDbEntity
  8
Sichtbare Kanten(TC_020513_DIN)
100
AcDbLine
 10
170.9651657893262
 20
233.8975879594303
 30
0.0
 11
170.9651657893262
 21
226.975952943627
 31
0.0
  0
ARC
  5
374
330
37
100
AcDbEntity
  8
Sichtbare Kanten(TC_020513_DIN)
100
AcDbCircle
 10
170.5901657893261
 20
233.8975879594302
 30
0.0
 40
0.3750000000000039
100
AcDbArc
 50
0.0
 51
144.0904238229659
  0
LINE
  5
375
330
37
100
AcDbEntity
  8
Sichtbare Kanten(TC_020513_DIN)
100
AcDbLine
 10
169.0901657893262
 20
232.4655259641689
 30
0.0
 11
170.2864369298356
 21
234.1175283602495
 31
0.0
  0
LINE
  5
376
330
37
100
AcDbEntity
  8
Sichtbare Kanten(TC_020513_DIN)
100
AcDbLine
 10
167.8938946488167
 20
234.1175283602495
 30
0.0
 11
169.0901657893262
 21
232.4655259641689
 31
0.0
  0
ARC
  5
377
330
37
100
AcDbEntity
  8
Sichtbare Kanten(TC_020513_DIN)
100
AcDbCircle
 10
167.5901657893262
 20
233.8975879594303
 30
0.0
 40
0.3750000000000005
100
AcDbArc
 50
35.90957617703406
 51
180.0
  0
LINE
  5
378
330
37
100
AcDbEntity
  8
Sichtbare Kanten(TC_020513_DIN)
100
AcDbLine
 10
167.2151657893262
 20
228.7499914051655
 30
0.0
 11
167.2151657893262
 21
233.8975879594303
 31
0.0
  0
ARC
  5
379
330
37
100
AcDbEntity
  8
Sichtbare Kanten(TC_020513_DIN)
100
AcDbCircle
 10
167.5901657893262
 20
228.7499914051655
 30
0.0
 40
0.3749999999999987
100
AcDbArc
 50
180.0
 51
0.0
  0
LINE
  5
37A
330
37
100
AcDbEntity
  8
Sichtbare Kanten(TC_020513_DIN)
100
AcDbLine
 10
167.9651657893262
 20
232.7403502652147
 30
0.0
 11
167.9651657893262
 21
228.7499914051655
 31
0.0
  0
LINE
  5
37B
330
37
100
AcDbEntity
  8
Sichtbare Kanten(TC_020513_DIN)
100
AcDbLine
 10
169.0901657893262
 20
231.1867704515286
 30
0.0
 11
167.9651657893262
 21
232.7403502652147
 31
0.0
  0
LINE
  5
37C
330
37
100
AcDbEntity
  8
Sichtbare Kanten(TC_020513_DIN)
100
AcDbLine
 10
216.0901657893262
 20
144.6367704515286
 30
0.0
 11
122.0901657893262
 21
144.6367704515286
 31
0.0
  0
LINE
  5
37D
330
37
100
AcDbEntity
  8
Sichtbare Kanten(TC_020513_DIN)
100
AcDbLine
 10
133.8401657893262
 20
249.4987221637224
 30
0.0
 11
133.8401657893262
 21
249.3944945761884
 31
0.0
  0
POLYLINE
  5
37E
330
37
100
AcDbEntity
  8
Sichtbare Kanten(TC_020513_DIN)
100
AcDb2dPolyline
 66
     1
 10
0.0
 20
0.0
 30
0.0
 70
   128
  0
VERTEX
  5
37F
330
37E
100
AcDbEntity
  8
Sichtbare Kanten(TC_020513_DIN)
100
AcDbVertex
100
AcDb2dVertex
 10
129.1329690768323
 20
249.4987220887967
 30
0.0
  0
VERTEX
  5
380
330
37E
100
AcDbEntity
  8
Sichtbare Kanten(TC_020513_DIN)
100
AcDbVertex
100
AcDb2dVertex
 10
129.1216823412976
 20
249.4985170488187
 30
0.0
  0
VERTEX
  5
382
330
37E
100
AcDbEntity
  8
Sichtbare Kanten(TC_020513_DIN)
100
AcDbVertex
100
AcDb2dVertex
 10
129.1102620913586
 20
249.497897160513
 30
0.0
  0
VERTEX
  5
383
330
37E
100
AcDbEntity
  8
Sichtbare Kanten(TC_020513_DIN)
100
AcDbVertex
100
AcDb2dVertex
 10
129.0987178637585
 20
249.4968814973661
 30
0.0
  0
VERTEX
  5
384
330
37E
100
AcDbEntity
  8
Sichtbare Kanten(TC_020513_DIN)
100
AcDbVertex
100
AcDb2dVertex
 10
129.0870568110547
 20
249.4954652910062
 30
0.0
  0
VERTEX
  5
385
330
37E
100
AcDbEntity
  8
Sichtbare Kanten(TC_020513_DIN)
100
AcDbVertex
100
AcDb2dVertex
 10
129.0752884699902
 20
249.4936628465482
 30
0.0
  0
VERTEX
  5
386
330
37E
100
AcDbEntity
  8
Sichtbare Kanten(TC_020513_DIN)
100
AcDbVertex
100
AcDb2dVertex
 10
129.0634199931226
 20
249.4914837007352
 30
0.0
  0
VERTEX
  5
387
330
37E
100
AcDbEntity
  8
Sichtbare Kanten(TC_020513_DIN)
100
AcDbVertex
100
AcDb2dVertex
 10
129.0514609171948
 20
249.4889278535672
 30
0.0
  0
VERTEX
  5
388
330
37E
100
AcDbEntity
  8
Sichtbare Kanten(TC_020513_DIN)
100
AcDbVertex
100
AcDb2dVertex
 10
129.0394207789502
 20
249.486009610159
 30
0.0
  0
VERTEX
  5
389
330
37E
100
AcDbEntity
  8
Sichtbare Kanten(TC_020513_DIN)
100
AcDbVertex
100
AcDb2dVertex
 10
129.0273091151318
 20
249.4827385072537
 30
0.0
  0
VERTEX
  5
38A
330
37E
100
AcDbEntity
  8
Sichtbare Kanten(TC_020513_DIN)
100
AcDbVertex
100
AcDb2dVertex
 10
129.0151354624829
 20
249.4791097764798
 30
0.0
  0
VERTEX
  5
38B
330
37E
100
AcDbEntity
  8
Sichtbare Kanten(TC_020513_DIN)
100
AcDbVertex
100
AcDb2dVertex
 10
129.0028998210034
 20
249.4751424913236
 30
0.0
  0
VERTEX
  5
38C
330
37E
100
AcDbEntity
  8
Sichtbare Kanten(TC_020513_DIN)
100
AcDbVertex
100
AcDb2dVertex
 10
128.9906164958081
 20
249.4708414201566
 30
0.0
  0
VERTEX
  5
38D
330
37E
100
AcDbEntity
  8
Sichtbare Kanten(TC_020513_DIN)
100
AcDbVertex
100
AcDb2dVertex
 10
128.9782711817822
 20
249.4662017946073
 30
0.0
  0
VERTEX
  5
38E
330
37E
100
AcDbEntity
  8
Sichtbare Kanten(TC_020513_DIN)
100
AcDbVertex
100
AcDb2dVertex
 10
128.9658734156689
 20
249.4612331514188
 30
0.0
  0
VERTEX
  5
38F
330
37E
100
AcDbEntity
  8
Sichtbare Kanten(TC_020513_DIN)
100
AcDbVertex
100
AcDb2dVertex
 10
128.9534231974682
 20
249.4559354905911
 30
0.0
  0
VERTEX
  5
390
330
37E
100
AcDbEntity
  8
Sichtbare Kanten(TC_020513_DIN)
100
AcDbVertex
100
AcDb2dVertex
 10
128.9409348322949
 20
249.4503231172391
 30
0.0
  0
VERTEX
  5
391
330
37E
100
AcDbEntity
  8
Sichtbare Kanten(TC_020513_DIN)
100
AcDbVertex
100
AcDb2dVertex
 10
128.9284083201489
 20
249.4443912629911
 30
0.0
  0
VERTEX
  5
392
330
37E
100
AcDbEntity
  8
Sichtbare Kanten(TC_020513_DIN)
100
AcDbVertex
100
AcDb2dVertex
 10
128.9158484294018
 20
249.4381542329617
 30
0.0
  0
VERTEX
  5
393
330
37E
100
AcDbEntity
  8
Sichtbare Kanten(TC_020513_DIN)
100
AcDbVertex
100
AcDb2dVertex
 10
128.9032646967969
 20
249.4316072587796
 30
0.0
  0
VERTEX
  5
394
330
37E
100
AcDbEntity
  8
Sichtbare Kanten(TC_020513_DIN)
100
AcDbVertex
100
AcDb2dVertex
 10
128.8906618907056
 20
249.4247646455594
 30
0.0
  0
VERTEX
  5
395
330
37E
100
AcDbEntity
  8
Sichtbare Kanten(TC_020513_DIN)
100
AcDbVertex
100
AcDb2dVertex
 10
128.8780447794995
 20
249.4176263933011
 30
0.0
  0
VERTEX
  5
396
330
37E
100
AcDbEntity
  8
Sichtbare Kanten(TC_020513_DIN)
100
AcDbVertex
100
AcDb2dVertex
 10
128.8654181315503
 20
249.4101972703763
 30
0.0
  0
VERTEX
  5
397
330
37E
100
AcDbEntity
  8
Sichtbare Kanten(TC_020513_DIN)
100
AcDbVertex
100
AcDb2dVertex
 10
128.8527914836011
 20
249.4024868135281
 30
0.0
  0
VERTEX
  5
398
330
37E
100
AcDbEntity
  8
Sichtbare Kanten(TC_020513_DIN)
100
AcDbVertex
100
AcDb2dVertex
 10
128.8401648356519
 20
249.3944950227567
 30
0.0
  0
SEQEND
  5
381
330
37E
100
AcDbEntity
  8
Sichtbare Kanten(TC_020513_DIN)
  0
LINE
  5
399
330
37
100
AcDbEntity
  8
Sichtbare Kanten(TC_020513_DIN)
100
AcDbLine
 10
129.3401657893262
 20
249.9367704515286
 30
0.0
 11
129.3401657893262
 21
249.4987221637224
 31
0.0
  0
LINE
  5
39A
330
37
100
AcDbEntity
  8
Sichtbare Kanten(TC_020513_DIN)
100
AcDbLine
 10
126.8401657893261
 20
250.4367704515286
 30
0.0
 11
126.8401657893261
 21
245.4367704515286
 31
0.0
  0
LINE
  5
39B
330
37
100
AcDbEntity
  8
Sichtbare Kanten(TC_020513_DIN)
100
AcDbLine
 10
133.8401657893262
 20
249.3944945761884
 30
0.0
 11
133.8401657893262
 21
245.4367704515286
 31
0.0
  0
LINE
  5
39C
330
37
100
AcDbEntity
  8
Sichtbare Kanten(TC_020513_DIN)
100
AcDbLine
 10
133.8401657893262
 20
243.1367704515287
 30
0.0
 11
133.8401657893262
 21
245.4367704515286
 31
0.0
  0
LINE
  5
39D
330
37
100
AcDbEntity
  8
Sichtbare Kanten(TC_020513_DIN)
100
AcDbLine
 10
126.8401657893262
 20
243.1367704515287
 30
0.0
 11
126.8401657893262
 21
245.4367704515286
 31
0.0
  0
LINE
  5
39E
330
37
100
AcDbEntity
  8
Sichtbare Kanten(TC_020513_DIN)
100
AcDbLine
 10
133.8401657893262
 20
249.4987221637224
 30
0.0
 11
129.132968219665
 21
249.4987221637224
 31
0.0
  0
ARC
  5
39F
330
37
100
AcDbEntity
  8
Sichtbare Kanten(TC_020513_DIN)
100
AcDbCircle
 10
128.8401657893262
 20
249.9367704515286
 30
0.0
 40
0.5
100
AcDbArc
 50
0.0
 51
90.0
  0
LINE
  5
3A0
330
37
100
AcDbEntity
  8
Sichtbare Kanten(TC_020513_DIN)
100
AcDbLine
 10
126.8401657893261
 20
250.4367704515286
 30
0.0
 11
128.8401657893262
 21
250.4367704515286
 31
0.0
  0
LINE
  5
3A1
330
37
100
AcDbEntity
  8
Sichtbare Kanten(TC_020513_DIN)
100
AcDbLine
 10
211.3401657893262
 20
250.4367704515286
 30
0.0
 11
211.3401657893262
 21
245.4367704515286
 31
0.0
  0
LINE
  5
3A2
330
37
100
AcDbEntity
  8
Sichtbare Kanten(TC_020513_DIN)
100
AcDbLine
 10
211.3401657893262
 20
243.1367704515287
 30
0.0
 11
211.3401657893262
 21
245.4367704515286
 31
0.0
  0
LINE
  5
3A3
330
37
100
AcDbEntity
  8
Sichtbare Kanten(TC_020513_DIN)
100
AcDbLine
 10
209.3401657893262
 20
250.4367704515286
 30
0.0
 11
211.3401657893262
 21
250.4367704515286
 31
0.0
  0
LINE
  5
3A4
330
37
100
AcDbEntity
  8
Sichtbare Kanten(TC_020513_DIN)
100
AcDbLine
 10
95.59016578932617
 20
152.3967704515286
 30
0.0
 11
95.59016578932617
 21
200.8767704515287
 31
0.0
  0
LINE
  5
3A5
330
37
100
AcDbEntity
  8
Sichtbare Kanten(TC_020513_DIN)
100
AcDbLine
 10
97.59016578932616
 20
151.3967704515287
 30
0.0
 11
97.59016578932616
 21
201.8767704515286
 31
0.0
  0
ARC
  5
3A6
330
37
100
AcDbEntity
  8
Sichtbare Kanten(TC_020513_DIN)
100
AcDbCircle
 10
96.59016578932616
 20
152.3967704515286
 30
0.0
 40
0.9999999999999998
100
AcDbArc
 50
180.0
 51
270.0
  0
ARC
  5
3A7
330
37
100
AcDbEntity
  8
Sichtbare Kanten(TC_020513_DIN)
100
AcDbCircle
 10
96.59016578932616
 20
200.8767704515287
 30
0.0
 40
0.9999999999999998
100
AcDbArc
 50
90.0
 51
180.0
  0
LINE
  5
3A8
330
37
100
AcDbEntity
  8
Sichtbare Kanten(TC_020513_DIN)
100
AcDbLine
 10
96.59016578932616
 20
201.8767704515286
 30
0.0
 11
97.59016578932618
 21
201.8767704515286
 31
0.0
  0
LINE
  5
3A9
330
37
100
AcDbEntity
  8
Sichtbare Kanten(TC_020513_DIN)
100
AcDbLine
 10
96.59016578932616
 20
151.3967704515286
 30
0.0
 11
97.59016578932618
 21
151.3967704515286
 31
0.0
  0
ARC
  5
3AA
330
37
100
AcDbEntity
  8
Sichtbare Kanten(TC_020513_DIN)
100
AcDbCircle
 10
98.34016578932619
 20
153.6967704515286
 30
0.0
 40
0.7500000000000002
100
AcDbArc
 50
180.0
 51
289.471220634491
  0
ARC
  5
3AB
330
37
100
AcDbEntity
  8
Sichtbare Kanten(TC_020513_DIN)
100
AcDbCircle
 10
98.34016578932619
 20
199.5767704515286
 30
0.0
 40
0.7500000000000001
100
AcDbArc
 50
70.52877936550903
 51
180.0
  0
LINE
  5
3AC
330
37
100
AcDbEntity
  8
Sichtbare Kanten(TC_020513_DIN)
100
AcDbLine
 10
204.3401657893262
 20
249.3944945761883
 30
0.0
 11
204.3401657893262
 21
249.4987221637224
 31
0.0
  0
POLYLINE
  5
3AD
330
37
100
AcDbEntity
  8
Sichtbare Kanten(TC_020513_DIN)
100
AcDb2dPolyline
 66
     1
 10
0.0
 20
0.0
 30
0.0
 70
   128
  0
VERTEX
  5
3AE
330
3AD
100
AcDbEntity
  8
Sichtbare Kanten(TC_020513_DIN)
100
AcDbVertex
100
AcDb2dVertex
 10
209.3401667430005
 20
249.3944950227567
 30
0.0
  0
VERTEX
  5
3AF
330
3AD
100
AcDbEntity
  8
Sichtbare Kanten(TC_020513_DIN)
100
AcDbVertex
100
AcDb2dVertex
 10
209.3275400950513
 20
249.4024868135281
 30
0.0
  0
VERTEX
  5
3B1
330
3AD
100
AcDbEntity
  8
Sichtbare Kanten(TC_020513_DIN)
100
AcDbVertex
100
AcDb2dVertex
 10
209.3149134471021
 20
249.4101972703763
 30
0.0
  0
VERTEX
  5
3B2
330
3AD
100
AcDbEntity
  8
Sichtbare Kanten(TC_020513_DIN)
100
AcDbVertex
100
AcDb2dVertex
 10
209.3022867991528
 20
249.4176263933011
 30
0.0
  0
VERTEX
  5
3B3
330
3AD
100
AcDbEntity
  8
Sichtbare Kanten(TC_020513_DIN)
100
AcDbVertex
100
AcDb2dVertex
 10
209.2896696879468
 20
249.4247646455594
 30
0.0
  0
VERTEX
  5
3B4
330
3AD
100
AcDbEntity
  8
Sichtbare Kanten(TC_020513_DIN)
100
AcDbVertex
100
AcDb2dVertex
 10
209.2770668818555
 20
249.4316072587796
 30
0.0
  0
VERTEX
  5
3B5
330
3AD
100
AcDbEntity
  8
Sichtbare Kanten(TC_020513_DIN)
100
AcDbVertex
100
AcDb2dVertex
 10
209.2644831492505
 20
249.4381542329617
 30
0.0
  0
VERTEX
  5
3B6
330
3AD
100
AcDbEntity
  8
Sichtbare Kanten(TC_020513_DIN)
100
AcDbVertex
100
AcDb2dVertex
 10
209.2519232585035
 20
249.4443912629911
 30
0.0
  0
VERTEX
  5
3B7
330
3AD
100
AcDbEntity
  8
Sichtbare Kanten(TC_020513_DIN)
100
AcDbVertex
100
AcDb2dVertex
 10
209.2393967463574
 20
249.4503231172391
 30
0.0
  0
VERTEX
  5
3B8
330
3AD
100
AcDbEntity
  8
Sichtbare Kanten(TC_020513_DIN)
100
AcDbVertex
100
AcDb2dVertex
 10
209.2269083811841
 20
249.4559354905911
 30
0.0
  0
VERTEX
  5
3B9
330
3AD
100
AcDbEntity
  8
Sichtbare Kanten(TC_020513_DIN)
100
AcDbVertex
100
AcDb2dVertex
 10
209.2144581629834
 20
249.4612331514188
 30
0.0
  0
VERTEX
  5
3BA
330
3AD
100
AcDbEntity
  8
Sichtbare Kanten(TC_020513_DIN)
100
AcDbVertex
100
AcDb2dVertex
 10
209.2020603968701
 20
249.4662017946073
 30
0.0
  0
VERTEX
  5
3BB
330
3AD
100
AcDbEntity
  8
Sichtbare Kanten(TC_020513_DIN)
100
AcDbVertex
100
AcDb2dVertex
 10
209.1897150828442
 20
249.4708414201566
 30
0.0
  0
VERTEX
  5
3BC
330
3AD
100
AcDbEntity
  8
Sichtbare Kanten(TC_020513_DIN)
100
AcDbVertex
100
AcDb2dVertex
 10
209.177431757649
 20
249.4751424913236
 30
0.0
  0
VERTEX
  5
3BD
330
3AD
100
AcDbEntity
  8
Sichtbare Kanten(TC_020513_DIN)
100
AcDbVertex
100
AcDb2dVertex
 10
209.1651961161694
 20
249.4791097764798
 30
0.0
  0
VERTEX
  5
3BE
330
3AD
100
AcDbEntity
  8
Sichtbare Kanten(TC_020513_DIN)
100
AcDbVertex
100
AcDb2dVertex
 10
209.1530224635205
 20
249.4827385072537
 30
0.0
  0
VERTEX
  5
3BF
330
3AD
100
AcDbEntity
  8
Sichtbare Kanten(TC_020513_DIN)
100
AcDbVertex
100
AcDb2dVertex
 10
209.1409107997022
 20
249.486009610159
 30
0.0
  0
VERTEX
  5
3C0
330
3AD
100
AcDbEntity
  8
Sichtbare Kanten(TC_020513_DIN)
100
AcDbVertex
100
AcDb2dVertex
 10
209.1288706614575
 20
249.4889278535672
 30
0.0
  0
VERTEX
  5
3C1
330
3AD
100
AcDbEntity
  8
Sichtbare Kanten(TC_020513_DIN)
100
AcDbVertex
100
AcDb2dVertex
 10
209.1169115855298
 20
249.4914837007352
 30
0.0
  0
VERTEX
  5
3C2
330
3AD
100
AcDbEntity
  8
Sichtbare Kanten(TC_020513_DIN)
100
AcDbVertex
100
AcDb2dVertex
 10
209.1050431086621
 20
249.4936628465482
 30
0.0
  0
VERTEX
  5
3C3
330
3AD
100
AcDbEntity
  8
Sichtbare Kanten(TC_020513_DIN)
100
AcDbVertex
100
AcDb2dVertex
 10
209.0932747675977
 20
249.4954652910062
 30
0.0
  0
VERTEX
  5
3C4
330
3AD
100
AcDbEntity
  8
Sichtbare Kanten(TC_020513_DIN)
100
AcDbVertex
100
AcDb2dVertex
 10
209.0816137148938
 20
249.4968814973661
 30
0.0
  0
VERTEX
  5
3C5
330
3AD
100
AcDbEntity
  8
Sichtbare Kanten(TC_020513_DIN)
100
AcDbVertex
100
AcDb2dVertex
 10
209.0700694872937
 20
249.497897160513
 30
0.0
  0
VERTEX
  5
3C6
330
3AD
100
AcDbEntity
  8
Sichtbare Kanten(TC_020513_DIN)
100
AcDbVertex
100
AcDb2dVertex
 10
209.0586492373548
 20
249.4985170488187
 30
0.0
  0
VERTEX
  5
3C7
330
3AD
100
AcDbEntity
  8
Sichtbare Kanten(TC_020513_DIN)
100
AcDbVertex
100
AcDb2dVertex
 10
209.0473625018201
 20
249.4987220887967
 30
0.0
  0
SEQEND
  5
3B0
330
3AD
100
AcDbEntity
  8
Sichtbare Kanten(TC_020513_DIN)
  0
LINE
  5
3C8
330
37
100
AcDbEntity
  8
Sichtbare Kanten(TC_020513_DIN)
100
AcDbLine
 10
208.8401657893262
 20
249.9367704515286
 30
0.0
 11
208.8401657893262
 21
249.4987221637224
 31
0.0
  0
LINE
  5
3C9
330
37
100
AcDbEntity
  8
Sichtbare Kanten(TC_020513_DIN)
100
AcDbLine
 10
209.0473633589874
 20
249.4987221637224
 30
0.0
 11
204.3401657893262
 21
249.4987221637224
 31
0.0
  0
ARC
  5
3CA
330
37
100
AcDbEntity
  8
Sichtbare Kanten(TC_020513_DIN)
100
AcDbCircle
 10
209.3401657893262
 20
249.9367704515286
 30
0.0
 40
0.5
100
AcDbArc
 50
90.0
 51
180.0
  0
LINE
  5
3CB
330
37
100
AcDbEntity
  8
Sichtbare Kanten(TC_020513_DIN)
100
AcDbLine
 10
204.3401657893262
 20
245.4367704515286
 30
0.0
 11
204.3401657893262
 21
243.1367704515287
 31
0.0
  0
LINE
  5
3CC
330
37
100
AcDbEntity
  8
Sichtbare Kanten(TC_020513_DIN)
100
AcDbLine
 10
204.3401657893262
 20
245.4367704515287
 30
0.0
 11
204.3401657893262
 21
249.3944945761884
 31
0.0
  0
POLYLINE
  5
3CD
330
37
100
AcDbEntity
  8
Sichtbare Kanten(TC_020513_DIN)
100
AcDb2dPolyline
 66
     1
 10
0.0
 20
0.0
 30
0.0
 70
   128
  0
VERTEX
  5
3CE
330
3CD
100
AcDbEntity
  8
Sichtbare Kanten(TC_020513_DIN)
100
AcDbVertex
100
AcDb2dVertex
 10
94.34016674300051
 20
234.9668975000211
 30
0.0
  0
VERTEX
  5
3CF
330
3CD
100
AcDbEntity
  8
Sichtbare Kanten(TC_020513_DIN)
100
AcDbVertex
100
AcDb2dVertex
 10
94.34091537733889
 20
234.9099226121732
 30
0.0
  0
VERTEX
  5
3D1
330
3CD
100
AcDbEntity
  8
Sichtbare Kanten(TC_020513_DIN)
100
AcDbVertex
100
AcDb2dVertex
 10
94.34315651198245
 20
234.8530788545438
 30
0.0
  0
VERTEX
  5
3D2
330
3CD
100
AcDbEntity
  8
Sichtbare Kanten(TC_020513_DIN)
100
AcDbVertex
100
AcDb2dVertex
 10
94.34687584181643
 20
234.7963209276028
 30
0.0
  0
VERTEX
  5
3D3
330
3CD
100
AcDbEntity
  8
Sichtbare Kanten(TC_020513_DIN)
100
AcDbVertex
100
AcDb2dVertex
 10
94.35207336684085
 20
234.7396035318204
 30
0.0
  0
VERTEX
  5
3D4
330
3CD
100
AcDbEntity
  8
Sichtbare Kanten(TC_020513_DIN)
100
AcDbVertex
100
AcDb2dVertex
 10
94.35873478194094
 20
234.6828861360379
 30
0.0
  0
VERTEX
  5
3D5
330
3CD
100
AcDbEntity
  8
Sichtbare Kanten(TC_020513_DIN)
100
AcDbVertex
100
AcDb2dVertex
 10
94.36686008711673
 20
234.6261258249112
 30
0.0
  0
VERTEX
  5
3D6
330
3CD
100
AcDbEntity
  8
Sichtbare Kanten(TC_020513_DIN)
100
AcDbVertex
100
AcDb2dVertex
 10
94.37644928236819
 20
234.5692772989103
 30
0.0
  0
VERTEX
  5
3D7
330
3CD
100
AcDbEntity
  8
Sichtbare Kanten(TC_020513_DIN)
100
AcDbVertex
100
AcDb2dVertex
 10
94.38750236769534
 20
234.5123000268765
 30
0.0
  0
VERTEX
  5
3D8
330
3CD
100
AcDbEntity
  8
Sichtbare Kanten(TC_020513_DIN)
100
AcDbVertex
100
AcDb2dVertex
 10
94.40002411146975
 20
234.4551510934659
 30
0.0
  0
VERTEX
  5
3D9
330
3CD
100
AcDbEntity
  8
Sichtbare Kanten(TC_020513_DIN)
100
AcDbVertex
100
AcDb2dVertex
 10
94.41401928206301
 20
234.3977875833341
 30
0.0
  0
VERTEX
  5
3DA
330
3CD
100
AcDbEntity
  8
Sichtbare Kanten(TC_020513_DIN)
100
AcDbVertex
100
AcDb2dVertex
 10
94.42949741621829
 20
234.3401665811368
 30
0.0
  0
VERTEX
  5
3DB
330
3CD
100
AcDbEntity
  8
Sichtbare Kanten(TC_020513_DIN)
100
AcDbVertex
100
AcDb2dVertex
 10
94.44646328230716
 20
234.2822451715299
 30
0.0
  0
VERTEX
  5
3DC
330
3CD
100
AcDbEntity
  8
Sichtbare Kanten(TC_020513_DIN)
100
AcDbVertex
100
AcDb2dVertex
 10
94.46493118544436
 20
234.2239780549832
 30
0.0
  0
VERTEX
  5
3DD
330
3CD
100
AcDbEntity
  8
Sichtbare Kanten(TC_020513_DIN)
100
AcDbVertex
100
AcDb2dVertex
 10
94.48492019911624
 20
234.1653270845243
 30
0.0
  0
VERTEX
  5
3DE
330
3CD
100
AcDbEntity
  8
Sichtbare Kanten(TC_020513_DIN)
100
AcDbVertex
100
AcDb2dVertex
 10
94.50643986006594
 20
234.1062398080655
 30
0.0
  0
VERTEX
  5
3DF
330
3CD
100
AcDbEntity
  8
Sichtbare Kanten(TC_020513_DIN)
100
AcDbVertex
100
AcDb2dVertex
 10
94.52951877852298
 20
234.0466780786344
 30
0.0
  0
VERTEX
  5
3E0
330
3CD
100
AcDbEntity
  8
Sichtbare Kanten(TC_020513_DIN)
100
AcDbVertex
100
AcDb2dVertex
 10
94.5541664912305
 20
233.9865894441434
 30
0.0
  0
VERTEX
  5
3E1
330
3CD
100
AcDbEntity
  8
Sichtbare Kanten(TC_020513_DIN)
100
AcDbVertex
100
AcDb2dVertex
 10
94.58041637678958
 20
233.9259309892484
 30
0.0
  0
VERTEX
  5
3E2
330
3CD
100
AcDbEntity
  8
Sichtbare Kanten(TC_020513_DIN)
100
AcDbVertex
100
AcDb2dVertex
 10
94.60829227705813
 20
233.8646502618619
 30
0.0
  0
VERTEX
  5
3E3
330
3CD
100
AcDbEntity
  8
Sichtbare Kanten(TC_020513_DIN)
100
AcDbVertex
100
AcDb2dVertex
 10
94.63782280226565
 20
233.802701962454
 30
0.0
  0
VERTEX
  5
3E4
330
3CD
100
AcDbEntity
  8
Sichtbare Kanten(TC_020513_DIN)
100
AcDbVertex
100
AcDb2dVertex
 10
94.66904133101321
 20
233.7400336389371
 30
0.0
  0
VERTEX
  5
3E5
330
3CD
100
AcDbEntity
  8
Sichtbare Kanten(TC_020513_DIN)
100
AcDbVertex
100
AcDb2dVertex
 10
94.70198124190188
 20
233.6765904550382
 30
0.0
  0
VERTEX
  5
3E6
330
3CD
100
AcDbEntity
  8
Sichtbare Kanten(TC_020513_DIN)
100
AcDbVertex
100
AcDb2dVertex
 10
94.73668068190432
 20
233.6123223428555
 30
0.0
  0
VERTEX
  5
3E7
330
3CD
100
AcDbEntity
  8
Sichtbare Kanten(TC_020513_DIN)
100
AcDbVertex
100
AcDb2dVertex
 10
94.77317779799319
 20
233.5471696977445
 30
0.0
  0
SEQEND
  5
3D0
330
3CD
100
AcDbEntity
  8
Sichtbare Kanten(TC_020513_DIN)
  0
LINE
  5
3E8
330
37
100
AcDbEntity
  8
Sichtbare Kanten(TC_020513_DIN)
100
AcDbLine
 10
94.34016578932617
 20
234.9668974704508
 30
0.0
 11
94.34016578932617
 21
230.6367704515287
 31
0.0
  0
POLYLINE
  5
3E9
330
37
100
AcDbEntity
  8
Sichtbare Kanten(TC_020513_DIN)
100
AcDb2dPolyline
 66
     1
 10
0.0
 20
0.0
 30
0.0
 70
   128
  0
VERTEX
  5
3EA
330
3E9
100
AcDbEntity
  8
Sichtbare Kanten(TC_020513_DIN)
100
AcDbVertex
100
AcDb2dVertex
 10
94.77317779799319
 20
233.4762234811612
 30
0.0
  0
VERTEX
  5
3EB
330
3E9
100
AcDbEntity
  8
Sichtbare Kanten(TC_020513_DIN)
100
AcDbVertex
100
AcDb2dVertex
 10
94.73668068190432
 20
233.3459205751248
 30
0.0
  0
VERTEX
  5
3ED
330
3E9
100
AcDbEntity
  8
Sichtbare Kanten(TC_020513_DIN)
100
AcDbVertex
100
AcDb2dVertex
 10
94.70198124190188
 20
233.2173819665738
 30
0.0
  0
VERTEX
  5
3EE
330
3E9
100
AcDbEntity
  8
Sichtbare Kanten(TC_020513_DIN)
100
AcDbVertex
100
AcDb2dVertex
 10
94.66904133101321
 20
233.0904979829618
 30
0.0
  0
VERTEX
  5
3EF
330
3E9
100
AcDbEntity
  8
Sichtbare Kanten(TC_020513_DIN)
100
AcDbVertex
100
AcDb2dVertex
 10
94.63782280226565
 20
232.9651613359281
 30
0.0
  0
VERTEX
  5
3F0
330
3E9
100
AcDbEntity
  8
Sichtbare Kanten(TC_020513_DIN)
100
AcDbVertex
100
AcDb2dVertex
 10
94.60829227705813
 20
232.8412647371121
 30
0.0
  0
VERTEX
  5
3F1
330
3E9
100
AcDbEntity
  8
Sichtbare Kanten(TC_020513_DIN)
100
AcDbVertex
100
AcDb2dVertex
 10
94.58041637678958
 20
232.718705666525
 30
0.0
  0
VERTEX
  5
3F2
330
3E9
100
AcDbEntity
  8
Sichtbare Kanten(TC_020513_DIN)
100
AcDbVertex
100
AcDb2dVertex
 10
94.5541664912305
 20
232.5973863725491
 30
0.0
  0
VERTEX
  5
3F3
330
3E9
100
AcDbEntity
  8
Sichtbare Kanten(TC_020513_DIN)
100
AcDbVertex
100
AcDb2dVertex
 10
94.52951877852298
 20
232.477211487753
 30
0.0
  0
VERTEX
  5
3F4
330
3E9
100
AcDbEntity
  8
Sichtbare Kanten(TC_020513_DIN)
100
AcDbVertex
100
AcDb2dVertex
 10
94.50643986006594
 20
232.3580832605191
 30
0.0
  0
VERTEX
  5
3F5
330
3E9
100
AcDbEntity
  8
Sichtbare Kanten(TC_020513_DIN)
100
AcDbVertex
100
AcDb2dVertex
 10
94.48492019911624
 20
232.2399134759732
 30
0.0
  0
VERTEX
  5
3F6
330
3E9
100
AcDbEntity
  8
Sichtbare Kanten(TC_020513_DIN)
100
AcDbVertex
100
AcDb2dVertex
 10
94.46493118544436
 20
232.1226067666837
 30
0.0
  0
VERTEX
  5
3F7
330
3E9
100
AcDbEntity
  8
Sichtbare Kanten(TC_020513_DIN)
100
AcDbVertex
100
AcDb2dVertex
 10
94.44646328230716
 20
232.006077301962
 30
0.0
  0
VERTEX
  5
3F8
330
3E9
100
AcDbEntity
  8
Sichtbare Kanten(TC_020513_DIN)
100
AcDbVertex
100
AcDb2dVertex
 10
94.42949741621829
 20
231.8902344827481
 30
0.0
  0
VERTEX
  5
3F9
330
3E9
100
AcDbEntity
  8
Sichtbare Kanten(TC_020513_DIN)
100
AcDbVertex
100
AcDb2dVertex
 10
94.41401928206301
 20
231.7749924783536
 30
0.0
  0
VERTEX
  5
3FA
330
3E9
100
AcDbEntity
  8
Sichtbare Kanten(TC_020513_DIN)
100
AcDbVertex
100
AcDb2dVertex
 10
94.40002411146975
 20
231.6602654580899
 30
0.0
  0
VERTEX
  5
3FB
330
3E9
100
AcDbEntity
  8
Sichtbare Kanten(TC_020513_DIN)
100
AcDbVertex
100
AcDb2dVertex
 10
94.38750236769534
 20
231.5459675912686
 30
0.0
  0
VERTEX
  5
3FC
330
3E9
100
AcDbEntity
  8
Sichtbare Kanten(TC_020513_DIN)
100
AcDbVertex
100
AcDb2dVertex
 10
94.37644928236819
 20
231.4320106630155
 30
0.0
  0
VERTEX
  5
3FD
330
3E9
100
AcDbEntity
  8
Sichtbare Kanten(TC_020513_DIN)
100
AcDbVertex
100
AcDb2dVertex
 10
94.36686008711673
 20
231.3183159951993
 30
0.0
  0
VERTEX
  5
3FE
330
3E9
100
AcDbEntity
  8
Sichtbare Kanten(TC_020513_DIN)
100
AcDbVertex
100
AcDb2dVertex
 10
94.35873478194094
 20
231.2047929887601
 30
0.0
  0
VERTEX
  5
3FF
330
3E9
100
AcDbEntity
  8
Sichtbare Kanten(TC_020513_DIN)
100
AcDbVertex
100
AcDb2dVertex
 10
94.35207336684085
 20
231.0913581971952
 30
0.0
  0
VERTEX
  5
400
330
3E9
100
AcDbEntity
  8
Sichtbare Kanten(TC_020513_DIN)
100
AcDbVertex
100
AcDb2dVertex
 10
94.34687584181643
 20
230.977925789816
 30
0.0
  0
VERTEX
  5
401
330
3E9
100
AcDbEntity
  8
Sichtbare Kanten(TC_020513_DIN)
100
AcDbVertex
100
AcDb2dVertex
 10
94.34315651198245
 20
230.8644075517484
 30
0.0
  0
VERTEX
  5
402
330
3E9
100
AcDbEntity
  8
Sichtbare Kanten(TC_020513_DIN)
100
AcDbVertex
100
AcDb2dVertex
 10
94.34091537733889
 20
230.7507200364896
 30
0.0
  0
VERTEX
  5
403
330
3E9
100
AcDbEntity
  8
Sichtbare Kanten(TC_020513_DIN)
100
AcDbVertex
100
AcDb2dVertex
 10
94.34016674300051
 20
230.6367702607938
 30
0.0
  0
SEQEND
  5
3EC
330
3E9
100
AcDbEntity
  8
Sichtbare Kanten(TC_020513_DIN)
  0
LINE
  5
404
330
37
100
AcDbEntity
  8
Sichtbare Kanten(TC_020513_DIN)
100
AcDbLine
 10
94.7731784912184
 20
233.4762246244289
 30
0.0
 11
94.7731784912184
 21
233.5471703840008
 31
0.0
  0
POLYLINE
  5
405
330
37
100
AcDbEntity
  8
Sichtbare Kanten(TC_020513_DIN)
100
AcDb2dPolyline
 66
     1
 10
0.0
 20
0.0
 30
0.0
 70
   128
  0
VERTEX
  5
406
330
405
100
AcDbEntity
  8
Sichtbare Kanten(TC_020513_DIN)
100
AcDbVertex
100
AcDb2dVertex
 10
94.77317779799319
 20
227.7263708238431
 30
0.0
  0
VERTEX
  5
407
330
405
100
AcDbEntity
  8
Sichtbare Kanten(TC_020513_DIN)
100
AcDbVertex
100
AcDb2dVertex
 10
94.73668068190432
 20
227.661218178732
 30
0.0
  0
VERTEX
  5
409
330
405
100
AcDbEntity
  8
Sichtbare Kanten(TC_020513_DIN)
100
AcDbVertex
100
AcDb2dVertex
 10
94.70198124190188
 20
227.5969500665494
 30
0.0
  0
VERTEX
  5
40A
330
405
100
AcDbEntity
  8
Sichtbare Kanten(TC_020513_DIN)
100
AcDbVertex
100
AcDb2dVertex
 10
94.66904133101321
 20
227.5335068826505
 30
0.0
  0
VERTEX
  5
40B
330
405
100
AcDbEntity
  8
Sichtbare Kanten(TC_020513_DIN)
100
AcDbVertex
100
AcDb2dVertex
 10
94.63782280226565
 20
227.4708385591336
 30
0.0
  0
VERTEX
  5
40C
330
405
100
AcDbEntity
  8
Sichtbare Kanten(TC_020513_DIN)
100
AcDbVertex
100
AcDb2dVertex
 10
94.60829227705813
 20
227.4088902597257
 30
0.0
  0
VERTEX
  5
40D
330
405
100
AcDbEntity
  8
Sichtbare Kanten(TC_020513_DIN)
100
AcDbVertex
100
AcDb2dVertex
 10
94.58041637678958
 20
227.347611916525
 30
0.0
  0
VERTEX
  5
40E
330
405
100
AcDbEntity
  8
Sichtbare Kanten(TC_020513_DIN)
100
AcDbVertex
100
AcDb2dVertex
 10
94.5541664912305
 20
227.2869510774442
 30
0.0
  0
VERTEX
  5
40F
330
405
100
AcDbEntity
  8
Sichtbare Kanten(TC_020513_DIN)
100
AcDbVertex
100
AcDb2dVertex
 10
94.52951877852298
 20
227.226864827139
 30
0.0
  0
VERTEX
  5
410
330
405
100
AcDbEntity
  8
Sichtbare Kanten(TC_020513_DIN)
100
AcDbVertex
100
AcDb2dVertex
 10
94.50643986006594
 20
227.1673007135221
 30
0.0
  0
VERTEX
  5
411
330
405
100
AcDbEntity
  8
Sichtbare Kanten(TC_020513_DIN)
100
AcDbVertex
100
AcDb2dVertex
 10
94.48492019911624
 20
227.1082158212491
 30
0.0
  0
VERTEX
  5
412
330
405
100
AcDbEntity
  8
Sichtbare Kanten(TC_020513_DIN)
100
AcDbVertex
100
AcDb2dVertex
 10
94.46493118544436
 20
227.0495624666043
 30
0.0
  0
VERTEX
  5
413
330
405
100
AcDbEntity
  8
Sichtbare Kanten(TC_020513_DIN)
100
AcDbVertex
100
AcDb2dVertex
 10
94.44646328230716
 20
226.9912977342435
 30
0.0
  0
VERTEX
  5
414
330
405
100
AcDbEntity
  8
Sichtbare Kanten(TC_020513_DIN)
100
AcDbVertex
100
AcDb2dVertex
 10
94.42949741621829
 20
226.9333763246366
 30
0.0
  0
VERTEX
  5
415
330
405
100
AcDbEntity
  8
Sichtbare Kanten(TC_020513_DIN)
100
AcDbVertex
100
AcDb2dVertex
 10
94.41401928206301
 20
226.8757553224393
 30
0.0
  0
VERTEX
  5
416
330
405
100
AcDbEntity
  8
Sichtbare Kanten(TC_020513_DIN)
100
AcDbVertex
100
AcDb2dVertex
 10
94.40002411146975
 20
226.8183918123074
 30
0.0
  0
VERTEX
  5
417
330
405
100
AcDbEntity
  8
Sichtbare Kanten(TC_020513_DIN)
100
AcDbVertex
100
AcDb2dVertex
 10
94.38750236769534
 20
226.761240494711
 30
0.0
  0
VERTEX
  5
418
330
405
100
AcDbEntity
  8
Sichtbare Kanten(TC_020513_DIN)
100
AcDbVertex
100
AcDb2dVertex
 10
94.37644928236819
 20
226.7042632226773
 30
0.0
  0
VERTEX
  5
419
330
405
100
AcDbEntity
  8
Sichtbare Kanten(TC_020513_DIN)
100
AcDbVertex
100
AcDb2dVertex
 10
94.36686008711673
 20
226.6474146966764
 30
0.0
  0
VERTEX
  5
41A
330
405
100
AcDbEntity
  8
Sichtbare Kanten(TC_020513_DIN)
100
AcDbVertex
100
AcDb2dVertex
 10
94.35873478194094
 20
226.5906543855496
 30
0.0
  0
VERTEX
  5
41B
330
405
100
AcDbEntity
  8
Sichtbare Kanten(TC_020513_DIN)
100
AcDbVertex
100
AcDb2dVertex
 10
94.35207336684085
 20
226.5339369897672
 30
0.0
  0
VERTEX
  5
41C
330
405
100
AcDbEntity
  8
Sichtbare Kanten(TC_020513_DIN)
100
AcDbVertex
100
AcDb2dVertex
 10
94.34687584181643
 20
226.4772195939847
 30
0.0
  0
VERTEX
  5
41D
330
405
100
AcDbEntity
  8
Sichtbare Kanten(TC_020513_DIN)
100
AcDbVertex
100
AcDb2dVertex
 10
94.34315651198245
 20
226.4204616670438
 30
0.0
  0
VERTEX
  5
41E
330
405
100
AcDbEntity
  8
Sichtbare Kanten(TC_020513_DIN)
100
AcDbVertex
100
AcDb2dVertex
 10
94.34091537733889
 20
226.3636179094144
 30
0.0
  0
VERTEX
  5
41F
330
405
100
AcDbEntity
  8
Sichtbare Kanten(TC_020513_DIN)
100
AcDbVertex
100
AcDb2dVertex
 10
94.34016674300051
 20
226.3066430215665
 30
0.0
  0
SEQEND
  5
408
330
405
100
AcDbEntity
  8
Sichtbare Kanten(TC_020513_DIN)
  0
LINE
  5
420
330
37
100
AcDbEntity
  8
Sichtbare Kanten(TC_020513_DIN)
100
AcDbLine
 10
94.7731784912184
 20
227.7263705190567
 30
0.0
 11
94.7731784912184
 21
227.7973162786285
 31
0.0
  0
POLYLINE
  5
421
330
37
100
AcDbEntity
  8
Sichtbare Kanten(TC_020513_DIN)
100
AcDb2dPolyline
 66
     1
 10
0.0
 20
0.0
 30
0.0
 70
   128
  0
VERTEX
  5
422
330
421
100
AcDbEntity
  8
Sichtbare Kanten(TC_020513_DIN)
100
AcDbVertex
100
AcDb2dVertex
 10
94.34016674300051
 20
230.6367702607938
 30
0.0
  0
VERTEX
  5
423
330
421
100
AcDbEntity
  8
Sichtbare Kanten(TC_020513_DIN)
100
AcDbVertex
100
AcDb2dVertex
 10
94.34091537733889
 20
230.522820485098
 30
0.0
  0
VERTEX
  5
425
330
421
100
AcDbEntity
  8
Sichtbare Kanten(TC_020513_DIN)
100
AcDbVertex
100
AcDb2dVertex
 10
94.34315651198245
 20
230.4091329698392
 30
0.0
  0
VERTEX
  5
426
330
421
100
AcDbEntity
  8
Sichtbare Kanten(TC_020513_DIN)
100
AcDbVertex
100
AcDb2dVertex
 10
94.34687584181643
 20
230.2956171159574
 30
0.0
  0
VERTEX
  5
427
330
421
100
AcDbEntity
  8
Sichtbare Kanten(TC_020513_DIN)
100
AcDbVertex
100
AcDb2dVertex
 10
94.35207336684085
 20
230.1821823243924
 30
0.0
  0
VERTEX
  5
428
330
421
100
AcDbEntity
  8
Sichtbare Kanten(TC_020513_DIN)
100
AcDbVertex
100
AcDb2dVertex
 10
94.35873478194094
 20
230.0687475328275
 30
0.0
  0
VERTEX
  5
429
330
421
100
AcDbEntity
  8
Sichtbare Kanten(TC_020513_DIN)
100
AcDbVertex
100
AcDb2dVertex
 10
94.36686008711673
 20
229.9552245263883
 30
0.0
  0
VERTEX
  5
42A
330
421
100
AcDbEntity
  8
Sichtbare Kanten(TC_020513_DIN)
100
AcDbVertex
100
AcDb2dVertex
 10
94.37644928236819
 20
229.8415298585721
 30
0.0
  0
VERTEX
  5
42B
330
421
100
AcDbEntity
  8
Sichtbare Kanten(TC_020513_DIN)
100
AcDbVertex
100
AcDb2dVertex
 10
94.38750236769534
 20
229.7275753145047
 30
0.0
  0
VERTEX
  5
42C
330
421
100
AcDbEntity
  8
Sichtbare Kanten(TC_020513_DIN)
100
AcDbVertex
100
AcDb2dVertex
 10
94.40002411146975
 20
229.6132750634976
 30
0.0
  0
VERTEX
  5
42D
330
421
100
AcDbEntity
  8
Sichtbare Kanten(TC_020513_DIN)
100
AcDbVertex
100
AcDb2dVertex
 10
94.41401928206301
 20
229.498548043234
 30
0.0
  0
VERTEX
  5
42E
330
421
100
AcDbEntity
  8
Sichtbare Kanten(TC_020513_DIN)
100
AcDbVertex
100
AcDb2dVertex
 10
94.42949741621829
 20
229.3833060388394
 30
0.0
  0
VERTEX
  5
42F
330
421
100
AcDbEntity
  8
Sichtbare Kanten(TC_020513_DIN)
100
AcDbVertex
100
AcDb2dVertex
 10
94.44646328230716
 20
229.2674632196256
 30
0.0
  0
VERTEX
  5
430
330
421
100
AcDbEntity
  8
Sichtbare Kanten(TC_020513_DIN)
100
AcDbVertex
100
AcDb2dVertex
 10
94.46493118544436
 20
229.1509337549039
 30
0.0
  0
VERTEX
  5
431
330
421
100
AcDbEntity
  8
Sichtbare Kanten(TC_020513_DIN)
100
AcDbVertex
100
AcDb2dVertex
 10
94.48492019911624
 20
229.0336270456144
 30
0.0
  0
VERTEX
  5
432
330
421
100
AcDbEntity
  8
Sichtbare Kanten(TC_020513_DIN)
100
AcDbVertex
100
AcDb2dVertex
 10
94.50643986006594
 20
228.9154572610685
 30
0.0
  0
VERTEX
  5
433
330
421
100
AcDbEntity
  8
Sichtbare Kanten(TC_020513_DIN)
100
AcDbVertex
100
AcDb2dVertex
 10
94.52951877852298
 20
228.7963290338346
 30
0.0
  0
VERTEX
  5
434
330
421
100
AcDbEntity
  8
Sichtbare Kanten(TC_020513_DIN)
100
AcDbVertex
100
AcDb2dVertex
 10
94.5541664912305
 20
228.6761541490384
 30
0.0
  0
VERTEX
  5
435
330
421
100
AcDbEntity
  8
Sichtbare Kanten(TC_020513_DIN)
100
AcDbVertex
100
AcDb2dVertex
 10
94.58041637678958
 20
228.5548348550626
 30
0.0
  0
VERTEX
  5
436
330
421
100
AcDbEntity
  8
Sichtbare Kanten(TC_020513_DIN)
100
AcDbVertex
100
AcDb2dVertex
 10
94.60829227705813
 20
228.4322781686612
 30
0.0
  0
VERTEX
  5
437
330
421
100
AcDbEntity
  8
Sichtbare Kanten(TC_020513_DIN)
100
AcDbVertex
100
AcDb2dVertex
 10
94.63782280226565
 20
228.3083791856595
 30
0.0
  0
VERTEX
  5
438
330
421
100
AcDbEntity
  8
Sichtbare Kanten(TC_020513_DIN)
100
AcDbVertex
100
AcDb2dVertex
 10
94.66904133101321
 20
228.1830425386258
 30
0.0
  0
VERTEX
  5
439
330
421
100
AcDbEntity
  8
Sichtbare Kanten(TC_020513_DIN)
100
AcDbVertex
100
AcDb2dVertex
 10
94.70198124190188
 20
228.0561585550138
 30
0.0
  0
VERTEX
  5
43A
330
421
100
AcDbEntity
  8
Sichtbare Kanten(TC_020513_DIN)
100
AcDbVertex
100
AcDb2dVertex
 10
94.73668068190432
 20
227.9276199464627
 30
0.0
  0
VERTEX
  5
43B
330
421
100
AcDbEntity
  8
Sichtbare Kanten(TC_020513_DIN)
100
AcDbVertex
100
AcDb2dVertex
 10
94.77317779799319
 20
227.7973170404263
 30
0.0
  0
SEQEND
  5
424
330
421
100
AcDbEntity
  8
Sichtbare Kanten(TC_020513_DIN)
  0
LINE
  5
43C
330
37
100
AcDbEntity
  8
Sichtbare Kanten(TC_020513_DIN)
100
AcDbLine
 10
94.34016578932617
 20
230.6367704515287
 30
0.0
 11
94.34016578932617
 21
226.3066434326065
 31
0.0
  0
LINE
  5
43D
330
37
100
AcDbEntity
  8
Sichtbare Kanten(TC_020513_DIN)
100
AcDbLine
 10
94.7731784912184
 20
224.8867704515287
 30
0.0
 11
94.7731784912184
 21
224.8869163461564
 31
0.0
  0
POLYLINE
  5
43E
330
37
100
AcDbEntity
  8
Sichtbare Kanten(TC_020513_DIN)
100
AcDb2dPolyline
 66
     1
 10
0.0
 20
0.0
 30
0.0
 70
   128
  0
VERTEX
  5
43F
330
43E
100
AcDbEntity
  8
Sichtbare Kanten(TC_020513_DIN)
100
AcDbVertex
100
AcDb2dVertex
 10
94.34016674300051
 20
226.3066430215665
 30
0.0
  0
VERTEX
  5
440
330
43E
100
AcDbEntity
  8
Sichtbare Kanten(TC_020513_DIN)
100
AcDbVertex
100
AcDb2dVertex
 10
94.34091537733889
 20
226.2496681337186
 30
0.0
  0
VERTEX
  5
442
330
43E
100
AcDbEntity
  8
Sichtbare Kanten(TC_020513_DIN)
100
AcDbVertex
100
AcDb2dVertex
 10
94.34315651198245
 20
226.1928243760892
 30
0.0
  0
VERTEX
  5
443
330
43E
100
AcDbEntity
  8
Sichtbare Kanten(TC_020513_DIN)
100
AcDbVertex
100
AcDb2dVertex
 10
94.34687584181643
 20
226.1360664491483
 30
0.0
  0
VERTEX
  5
444
330
43E
100
AcDbEntity
  8
Sichtbare Kanten(TC_020513_DIN)
100
AcDbVertex
100
AcDb2dVertex
 10
94.35207336684085
 20
226.0793490533658
 30
0.0
  0
VERTEX
  5
445
330
43E
100
AcDbEntity
  8
Sichtbare Kanten(TC_020513_DIN)
100
AcDbVertex
100
AcDb2dVertex
 10
94.35873478194094
 20
226.0226316575833
 30
0.0
  0
VERTEX
  5
446
330
43E
100
AcDbEntity
  8
Sichtbare Kanten(TC_020513_DIN)
100
AcDbVertex
100
AcDb2dVertex
 10
94.36686008711673
 20
225.9658713464566
 30
0.0
  0
VERTEX
  5
447
330
43E
100
AcDbEntity
  8
Sichtbare Kanten(TC_020513_DIN)
100
AcDbVertex
100
AcDb2dVertex
 10
94.37644928236819
 20
225.9090228204557
 30
0.0
  0
VERTEX
  5
448
330
43E
100
AcDbEntity
  8
Sichtbare Kanten(TC_020513_DIN)
100
AcDbVertex
100
AcDb2dVertex
 10
94.38750236769534
 20
225.8520455484219
 30
0.0
  0
VERTEX
  5
449
330
43E
100
AcDbEntity
  8
Sichtbare Kanten(TC_020513_DIN)
100
AcDbVertex
100
AcDb2dVertex
 10
94.40002411146975
 20
225.7948966150113
 30
0.0
  0
VERTEX
  5
44A
330
43E
100
AcDbEntity
  8
Sichtbare Kanten(TC_020513_DIN)
100
AcDbVertex
100
AcDb2dVertex
 10
94.41401928206301
 20
225.7375331048795
 30
0.0
  0
VERTEX
  5
44B
330
43E
100
AcDbEntity
  8
Sichtbare Kanten(TC_020513_DIN)
100
AcDbVertex
100
AcDb2dVertex
 10
94.42949741621829
 20
225.6799121026822
 30
0.0
  0
VERTEX
  5
44C
330
43E
100
AcDbEntity
  8
Sichtbare Kanten(TC_020513_DIN)
100
AcDbVertex
100
AcDb2dVertex
 10
94.44646328230716
 20
225.6219906930753
 30
0.0
  0
VERTEX
  5
44D
330
43E
100
AcDbEntity
  8
Sichtbare Kanten(TC_020513_DIN)
100
AcDbVertex
100
AcDb2dVertex
 10
94.46493118544436
 20
225.5637259607144
 30
0.0
  0
VERTEX
  5
44E
330
43E
100
AcDbEntity
  8
Sichtbare Kanten(TC_020513_DIN)
100
AcDbVertex
100
AcDb2dVertex
 10
94.48492019911624
 20
225.5050726060697
 30
0.0
  0
VERTEX
  5
44F
330
43E
100
AcDbEntity
  8
Sichtbare Kanten(TC_020513_DIN)
100
AcDbVertex
100
AcDb2dVertex
 10
94.50643986006594
 20
225.4459877137967
 30
0.0
  0
VERTEX
  5
450
330
43E
100
AcDbEntity
  8
Sichtbare Kanten(TC_020513_DIN)
100
AcDbVertex
100
AcDb2dVertex
 10
94.52951877852298
 20
225.3864236001798
 30
0.0
  0
VERTEX
  5
451
330
43E
100
AcDbEntity
  8
Sichtbare Kanten(TC_020513_DIN)
100
AcDbVertex
100
AcDb2dVertex
 10
94.5541664912305
 20
225.3263349656888
 30
0.0
  0
VERTEX
  5
452
330
43E
100
AcDbEntity
  8
Sichtbare Kanten(TC_020513_DIN)
100
AcDbVertex
100
AcDb2dVertex
 10
94.58041637678958
 20
225.2656765107938
 30
0.0
  0
VERTEX
  5
453
330
43E
100
AcDbEntity
  8
Sichtbare Kanten(TC_020513_DIN)
100
AcDbVertex
100
AcDb2dVertex
 10
94.60829227705813
 20
225.2043957834073
 30
0.0
  0
VERTEX
  5
454
330
43E
100
AcDbEntity
  8
Sichtbare Kanten(TC_020513_DIN)
100
AcDbVertex
100
AcDb2dVertex
 10
94.63782280226565
 20
225.1424474839994
 30
0.0
  0
VERTEX
  5
455
330
43E
100
AcDbEntity
  8
Sichtbare Kanten(TC_020513_DIN)
100
AcDbVertex
100
AcDb2dVertex
 10
94.66904133101321
 20
225.0797791604825
 30
0.0
  0
VERTEX
  5
456
330
43E
100
AcDbEntity
  8
Sichtbare Kanten(TC_020513_DIN)
100
AcDbVertex
100
AcDb2dVertex
 10
94.70198124190188
 20
225.0163383607694
 30
0.0
  0
VERTEX
  5
457
330
43E
100
AcDbEntity
  8
Sichtbare Kanten(TC_020513_DIN)
100
AcDbVertex
100
AcDb2dVertex
 10
94.73668068190432
 20
224.952067864401
 30
0.0
  0
VERTEX
  5
458
330
43E
100
AcDbEntity
  8
Sichtbare Kanten(TC_020513_DIN)
100
AcDbVertex
100
AcDb2dVertex
 10
94.77317779799319
 20
224.8869152192899
 30
0.0
  0
SEQEND
  5
441
330
43E
100
AcDbEntity
  8
Sichtbare Kanten(TC_020513_DIN)
  0
LINE
  5
459
330
37
100
AcDbEntity
  8
Sichtbare Kanten(TC_020513_DIN)
100
AcDbLine
 10
94.34016578932617
 20
226.3066434326065
 30
0.0
 11
94.34016578932617
 21
225.6367704515287
 31
0.0
  0
LINE
  5
45A
330
37
100
AcDbEntity
  8
Sichtbare Kanten(TC_020513_DIN)
100
AcDbLine
 10
94.34016578932617
 20
235.6367704515287
 30
0.0
 11
94.34016578932617
 21
234.9668974704508
 31
0.0
  0
POLYLINE
  5
45B
330
37
100
AcDbEntity
  8
Sichtbare Kanten(TC_020513_DIN)
100
AcDb2dPolyline
 66
     1
 10
0.0
 20
0.0
 30
0.0
 70
   128
  0
VERTEX
  5
45C
330
45B
100
AcDbEntity
  8
Sichtbare Kanten(TC_020513_DIN)
100
AcDbVertex
100
AcDb2dVertex
 10
94.77317779799319
 20
236.3866253022977
 30
0.0
  0
VERTEX
  5
45D
330
45B
100
AcDbEntity
  8
Sichtbare Kanten(TC_020513_DIN)
100
AcDbVertex
100
AcDb2dVertex
 10
94.73668068190432
 20
236.3214726571866
 30
0.0
  0
VERTEX
  5
45F
330
45B
100
AcDbEntity
  8
Sichtbare Kanten(TC_020513_DIN)
100
AcDbVertex
100
AcDb2dVertex
 10
94.70198124190188
 20
236.257204545004
 30
0.0
  0
VERTEX
  5
460
330
45B
100
AcDbEntity
  8
Sichtbare Kanten(TC_020513_DIN)
100
AcDbVertex
100
AcDb2dVertex
 10
94.66904133101321
 20
236.1937613611051
 30
0.0
  0
VERTEX
  5
461
330
45B
100
AcDbEntity
  8
Sichtbare Kanten(TC_020513_DIN)
100
AcDbVertex
100
AcDb2dVertex
 10
94.63782280226565
 20
236.1310930375882
 30
0.0
  0
VERTEX
  5
462
330
45B
100
AcDbEntity
  8
Sichtbare Kanten(TC_020513_DIN)
100
AcDbVertex
100
AcDb2dVertex
 10
94.60829227705813
 20
236.0691447381803
 30
0.0
  0
VERTEX
  5
463
330
45B
100
AcDbEntity
  8
Sichtbare Kanten(TC_020513_DIN)
100
AcDbVertex
100
AcDb2dVertex
 10
94.58041637678958
 20
236.0078640107938
 30
0.0
  0
VERTEX
  5
464
330
45B
100
AcDbEntity
  8
Sichtbare Kanten(TC_020513_DIN)
100
AcDbVertex
100
AcDb2dVertex
 10
94.5541664912305
 20
235.9472055558988
 30
0.0
  0
VERTEX
  5
465
330
45B
100
AcDbEntity
  8
Sichtbare Kanten(TC_020513_DIN)
100
AcDbVertex
100
AcDb2dVertex
 10
94.52951877852298
 20
235.8871169214078
 30
0.0
  0
VERTEX
  5
466
330
45B
100
AcDbEntity
  8
Sichtbare Kanten(TC_020513_DIN)
100
AcDbVertex
100
AcDb2dVertex
 10
94.50643986006594
 20
235.8275551919767
 30
0.0
  0
VERTEX
  5
467
330
45B
100
AcDbEntity
  8
Sichtbare Kanten(TC_020513_DIN)
100
AcDbVertex
100
AcDb2dVertex
 10
94.48492019911624
 20
235.7684679155179
 30
0.0
  0
VERTEX
  5
468
330
45B
100
AcDbEntity
  8
Sichtbare Kanten(TC_020513_DIN)
100
AcDbVertex
100
AcDb2dVertex
 10
94.46493118544436
 20
235.7098169450589
 30
0.0
  0
VERTEX
  5
469
330
45B
100
AcDbEntity
  8
Sichtbare Kanten(TC_020513_DIN)
100
AcDbVertex
100
AcDb2dVertex
 10
94.44646328230716
 20
235.6515498285123
 30
0.0
  0
VERTEX
  5
46A
330
45B
100
AcDbEntity
  8
Sichtbare Kanten(TC_020513_DIN)
100
AcDbVertex
100
AcDb2dVertex
 10
94.42949741621829
 20
235.5936284189053
 30
0.0
  0
VERTEX
  5
46B
330
45B
100
AcDbEntity
  8
Sichtbare Kanten(TC_020513_DIN)
100
AcDbVertex
100
AcDb2dVertex
 10
94.41401928206301
 20
235.5360074167081
 30
0.0
  0
VERTEX
  5
46C
330
45B
100
AcDbEntity
  8
Sichtbare Kanten(TC_020513_DIN)
100
AcDbVertex
100
AcDb2dVertex
 10
94.40002411146975
 20
235.4786439065763
 30
0.0
  0
VERTEX
  5
46D
330
45B
100
AcDbEntity
  8
Sichtbare Kanten(TC_020513_DIN)
100
AcDbVertex
100
AcDb2dVertex
 10
94.38750236769534
 20
235.4214949731656
 30
0.0
  0
VERTEX
  5
46E
330
45B
100
AcDbEntity
  8
Sichtbare Kanten(TC_020513_DIN)
100
AcDbVertex
100
AcDb2dVertex
 10
94.37644928236819
 20
235.3645177011319
 30
0.0
  0
VERTEX
  5
46F
330
45B
100
AcDbEntity
  8
Sichtbare Kanten(TC_020513_DIN)
100
AcDbVertex
100
AcDb2dVertex
 10
94.36686008711673
 20
235.3076691751309
 30
0.0
  0
VERTEX
  5
470
330
45B
100
AcDbEntity
  8
Sichtbare Kanten(TC_020513_DIN)
100
AcDbVertex
100
AcDb2dVertex
 10
94.35873478194094
 20
235.2509088640042
 30
0.0
  0
VERTEX
  5
471
330
45B
100
AcDbEntity
  8
Sichtbare Kanten(TC_020513_DIN)
100
AcDbVertex
100
AcDb2dVertex
 10
94.35207336684085
 20
235.1941914682218
 30
0.0
  0
VERTEX
  5
472
330
45B
100
AcDbEntity
  8
Sichtbare Kanten(TC_020513_DIN)
100
AcDbVertex
100
AcDb2dVertex
 10
94.34687584181643
 20
235.1374740724393
 30
0.0
  0
VERTEX
  5
473
330
45B
100
AcDbEntity
  8
Sichtbare Kanten(TC_020513_DIN)
100
AcDbVertex
100
AcDb2dVertex
 10
94.34315651198245
 20
235.0807161454984
 30
0.0
  0
VERTEX
  5
474
330
45B
100
AcDbEntity
  8
Sichtbare Kanten(TC_020513_DIN)
100
AcDbVertex
100
AcDb2dVertex
 10
94.34091537733889
 20
235.023872387869
 30
0.0
  0
VERTEX
  5
475
330
45B
100
AcDbEntity
  8
Sichtbare Kanten(TC_020513_DIN)
100
AcDbVertex
100
AcDb2dVertex
 10
94.34016674300051
 20
234.9668975000211
 30
0.0
  0
SEQEND
  5
45E
330
45B
100
AcDbEntity
  8
Sichtbare Kanten(TC_020513_DIN)
  0
LINE
  5
476
330
37
100
AcDbEntity
  8
Sichtbare Kanten(TC_020513_DIN)
100
AcDbLine
 10
94.7731784912184
 20
236.3866245569009
 30
0.0
 11
94.7731784912184
 21
236.3867704515286
 31
0.0
  0
POLYLINE
  5
477
330
37
100
AcDbEntity
  8
Sichtbare Kanten(TC_020513_DIN)
100
AcDb2dPolyline
 66
     1
 10
0.0
 20
0.0
 30
0.0
 70
   128
  0
VERTEX
  5
478
330
477
100
AcDbEntity
  8
Sichtbare Kanten(TC_020513_DIN)
100
AcDbVertex
100
AcDb2dVertex
 10
243.4071537806592
 20
224.8869152192899
 30
0.0
  0
VERTEX
  5
479
330
477
100
AcDbEntity
  8
Sichtbare Kanten(TC_020513_DIN)
100
AcDbVertex
100
AcDb2dVertex
 10
243.4436508967481
 20
224.952067864401
 30
0.0
  0
VERTEX
  5
47B
330
477
100
AcDbEntity
  8
Sichtbare Kanten(TC_020513_DIN)
100
AcDbVertex
100
AcDb2dVertex
 10
243.4783503367505
 20
225.0163383607694
 30
0.0
  0
VERTEX
  5
47C
330
477
100
AcDbEntity
  8
Sichtbare Kanten(TC_020513_DIN)
100
AcDbVertex
100
AcDb2dVertex
 10
243.5112902476392
 20
225.0797791604825
 30
0.0
  0
VERTEX
  5
47D
330
477
100
AcDbEntity
  8
Sichtbare Kanten(TC_020513_DIN)
100
AcDbVertex
100
AcDb2dVertex
 10
243.5425087763867
 20
225.1424474839994
 30
0.0
  0
VERTEX
  5
47E
330
477
100
AcDbEntity
  8
Sichtbare Kanten(TC_020513_DIN)
100
AcDbVertex
100
AcDb2dVertex
 10
243.5720393015943
 20
225.2043957834073
 30
0.0
  0
VERTEX
  5
47F
330
477
100
AcDbEntity
  8
Sichtbare Kanten(TC_020513_DIN)
100
AcDbVertex
100
AcDb2dVertex
 10
243.5999152018628
 20
225.2656765107938
 30
0.0
  0
VERTEX
  5
480
330
477
100
AcDbEntity
  8
Sichtbare Kanten(TC_020513_DIN)
100
AcDbVertex
100
AcDb2dVertex
 10
243.6261650874219
 20
225.3263349656888
 30
0.0
  0
VERTEX
  5
481
330
477
100
AcDbEntity
  8
Sichtbare Kanten(TC_020513_DIN)
100
AcDbVertex
100
AcDb2dVertex
 10
243.6508128001294
 20
225.3864236001798
 30
0.0
  0
VERTEX
  5
482
330
477
100
AcDbEntity
  8
Sichtbare Kanten(TC_020513_DIN)
100
AcDbVertex
100
AcDb2dVertex
 10
243.6738917185865
 20
225.4459877137967
 30
0.0
  0
VERTEX
  5
483
330
477
100
AcDbEntity
  8
Sichtbare Kanten(TC_020513_DIN)
100
AcDbVertex
100
AcDb2dVertex
 10
243.6954113795362
 20
225.5050726060697
 30
0.0
  0
VERTEX
  5
484
330
477
100
AcDbEntity
  8
Sichtbare Kanten(TC_020513_DIN)
100
AcDbVertex
100
AcDb2dVertex
 10
243.715400393208
 20
225.5637259607144
 30
0.0
  0
VERTEX
  5
485
330
477
100
AcDbEntity
  8
Sichtbare Kanten(TC_020513_DIN)
100
AcDbVertex
100
AcDb2dVertex
 10
243.7338682963452
 20
225.6219906930753
 30
0.0
  0
VERTEX
  5
486
330
477
100
AcDbEntity
  8
Sichtbare Kanten(TC_020513_DIN)
100
AcDbVertex
100
AcDb2dVertex
 10
243.7508341624341
 20
225.6799121026822
 30
0.0
  0
VERTEX
  5
487
330
477
100
AcDbEntity
  8
Sichtbare Kanten(TC_020513_DIN)
100
AcDbVertex
100
AcDb2dVertex
 10
243.7663122965894
 20
225.7375331048795
 30
0.0
  0
VERTEX
  5
488
330
477
100
AcDbEntity
  8
Sichtbare Kanten(TC_020513_DIN)
100
AcDbVertex
100
AcDb2dVertex
 10
243.7803074671826
 20
225.7948966150113
 30
0.0
  0
VERTEX
  5
489
330
477
100
AcDbEntity
  8
Sichtbare Kanten(TC_020513_DIN)
100
AcDbVertex
100
AcDb2dVertex
 10
243.7928292109571
 20
225.8520455484219
 30
0.0
  0
VERTEX
  5
48A
330
477
100
AcDbEntity
  8
Sichtbare Kanten(TC_020513_DIN)
100
AcDbVertex
100
AcDb2dVertex
 10
243.8038822962842
 20
225.9090228204557
 30
0.0
  0
VERTEX
  5
48B
330
477
100
AcDbEntity
  8
Sichtbare Kanten(TC_020513_DIN)
100
AcDbVertex
100
AcDb2dVertex
 10
243.8134714915356
 20
225.9658713464566
 30
0.0
  0
VERTEX
  5
48C
330
477
100
AcDbEntity
  8
Sichtbare Kanten(TC_020513_DIN)
100
AcDbVertex
100
AcDb2dVertex
 10
243.8215967967114
 20
226.0226316575833
 30
0.0
  0
VERTEX
  5
48D
330
477
100
AcDbEntity
  8
Sichtbare Kanten(TC_020513_DIN)
100
AcDbVertex
100
AcDb2dVertex
 10
243.8282582118115
 20
226.0793490533658
 30
0.0
  0
VERTEX
  5
48E
330
477
100
AcDbEntity
  8
Sichtbare Kanten(TC_020513_DIN)
100
AcDbVertex
100
AcDb2dVertex
 10
243.833455736836
 20
226.1360664491483
 30
0.0
  0
VERTEX
  5
48F
330
477
100
AcDbEntity
  8
Sichtbare Kanten(TC_020513_DIN)
100
AcDbVertex
100
AcDb2dVertex
 10
243.8371750666699
 20
226.1928243760892
 30
0.0
  0
VERTEX
  5
490
330
477
100
AcDbEntity
  8
Sichtbare Kanten(TC_020513_DIN)
100
AcDbVertex
100
AcDb2dVertex
 10
243.8394162013135
 20
226.2496681337186
 30
0.0
  0
VERTEX
  5
491
330
477
100
AcDbEntity
  8
Sichtbare Kanten(TC_020513_DIN)
100
AcDbVertex
100
AcDb2dVertex
 10
243.8401648356519
 20
226.3066430215665
 30
0.0
  0
SEQEND
  5
47A
330
477
100
AcDbEntity
  8
Sichtbare Kanten(TC_020513_DIN)
  0
LINE
  5
492
330
37
100
AcDbEntity
  8
Sichtbare Kanten(TC_020513_DIN)
100
AcDbLine
 10
243.407153087434
 20
224.8869163461564
 30
0.0
 11
243.407153087434
 21
224.8867704515287
 31
0.0
  0
LINE
  5
493
330
37
100
AcDbEntity
  8
Sichtbare Kanten(TC_020513_DIN)
100
AcDbLine
 10
243.8401657893262
 20
225.6367704515286
 30
0.0
 11
243.8401657893262
 21
226.3066434326065
 31
0.0
  0
POLYLINE
  5
494
330
37
100
AcDbEntity
  8
Sichtbare Kanten(TC_020513_DIN)
100
AcDb2dPolyline
 66
     1
 10
0.0
 20
0.0
 30
0.0
 70
   128
  0
VERTEX
  5
495
330
494
100
AcDbEntity
  8
Sichtbare Kanten(TC_020513_DIN)
100
AcDbVertex
100
AcDb2dVertex
 10
243.4071537806592
 20
227.7973170404263
 30
0.0
  0
VERTEX
  5
496
330
494
100
AcDbEntity
  8
Sichtbare Kanten(TC_020513_DIN)
100
AcDbVertex
100
AcDb2dVertex
 10
243.4436508967481
 20
227.9276199464627
 30
0.0
  0
VERTEX
  5
498
330
494
100
AcDbEntity
  8
Sichtbare Kanten(TC_020513_DIN)
100
AcDbVertex
100
AcDb2dVertex
 10
243.4783503367505
 20
228.0561585550138
 30
0.0
  0
VERTEX
  5
499
330
494
100
AcDbEntity
  8
Sichtbare Kanten(TC_020513_DIN)
100
AcDbVertex
100
AcDb2dVertex
 10
243.5112902476392
 20
228.1830425386258
 30
0.0
  0
VERTEX
  5
49A
330
494
100
AcDbEntity
  8
Sichtbare Kanten(TC_020513_DIN)
100
AcDbVertex
100
AcDb2dVertex
 10
243.5425087763867
 20
228.3083791856595
 30
0.0
  0
VERTEX
  5
49B
330
494
100
AcDbEntity
  8
Sichtbare Kanten(TC_020513_DIN)
100
AcDbVertex
100
AcDb2dVertex
 10
243.5720393015943
 20
228.4322781686612
 30
0.0
  0
VERTEX
  5
49C
330
494
100
AcDbEntity
  8
Sichtbare Kanten(TC_020513_DIN)
100
AcDbVertex
100
AcDb2dVertex
 10
243.5999152018628
 20
228.5548348550626
 30
0.0
  0
VERTEX
  5
49D
330
494
100
AcDbEntity
  8
Sichtbare Kanten(TC_020513_DIN)
100
AcDbVertex
100
AcDb2dVertex
 10
243.6261650874219
 20
228.6761541490384
 30
0.0
  0
VERTEX
  5
49E
330
494
100
AcDbEntity
  8
Sichtbare Kanten(TC_020513_DIN)
100
AcDbVertex
100
AcDb2dVertex
 10
243.6508128001294
 20
228.7963290338346
 30
0.0
  0
VERTEX
  5
49F
330
494
100
AcDbEntity
  8
Sichtbare Kanten(TC_020513_DIN)
100
AcDbVertex
100
AcDb2dVertex
 10
243.6738917185865
 20
228.9154572610685
 30
0.0
  0
VERTEX
  5
4A0
330
494
100
AcDbEntity
  8
Sichtbare Kanten(TC_020513_DIN)
100
AcDbVertex
100
AcDb2dVertex
 10
243.6954113795362
 20
229.0336270456144
 30
0.0
  0
VERTEX
  5
4A1
330
494
100
AcDbEntity
  8
Sichtbare Kanten(TC_020513_DIN)
100
AcDbVertex
100
AcDb2dVertex
 10
243.715400393208
 20
229.1509337549039
 30
0.0
  0
VERTEX
  5
4A2
330
494
100
AcDbEntity
  8
Sichtbare Kanten(TC_020513_DIN)
100
AcDbVertex
100
AcDb2dVertex
 10
243.7338682963452
 20
229.2674632196256
 30
0.0
  0
VERTEX
  5
4A3
330
494
100
AcDbEntity
  8
Sichtbare Kanten(TC_020513_DIN)
100
AcDbVertex
100
AcDb2dVertex
 10
243.7508341624341
 20
229.3833060388394
 30
0.0
  0
VERTEX
  5
4A4
330
494
100
AcDbEntity
  8
Sichtbare Kanten(TC_020513_DIN)
100
AcDbVertex
100
AcDb2dVertex
 10
243.7663122965894
 20
229.498548043234
 30
0.0
  0
VERTEX
  5
4A5
330
494
100
AcDbEntity
  8
Sichtbare Kanten(TC_020513_DIN)
100
AcDbVertex
100
AcDb2dVertex
 10
243.7803074671826
 20
229.6132750634976
 30
0.0
  0
VERTEX
  5
4A6
330
494
100
AcDbEntity
  8
Sichtbare Kanten(TC_020513_DIN)
100
AcDbVertex
100
AcDb2dVertex
 10
243.7928292109571
 20
229.7275753145047
 30
0.0
  0
VERTEX
  5
4A7
330
494
100
AcDbEntity
  8
Sichtbare Kanten(TC_020513_DIN)
100
AcDbVertex
100
AcDb2dVertex
 10
243.8038822962842
 20
229.8415298585721
 30
0.0
  0
VERTEX
  5
4A8
330
494
100
AcDbEntity
  8
Sichtbare Kanten(TC_020513_DIN)
100
AcDbVertex
100
AcDb2dVertex
 10
243.8134714915356
 20
229.9552245263883
 30
0.0
  0
VERTEX
  5
4A9
330
494
100
AcDbEntity
  8
Sichtbare Kanten(TC_020513_DIN)
100
AcDbVertex
100
AcDb2dVertex
 10
243.8215967967114
 20
230.0687475328275
 30
0.0
  0
VERTEX
  5
4AA
330
494
100
AcDbEntity
  8
Sichtbare Kanten(TC_020513_DIN)
100
AcDbVertex
100
AcDb2dVertex
 10
243.8282582118115
 20
230.1821823243924
 30
0.0
  0
VERTEX
  5
4AB
330
494
100
AcDbEntity
  8
Sichtbare Kanten(TC_020513_DIN)
100
AcDbVertex
100
AcDb2dVertex
 10
243.833455736836
 20
230.2956171159574
 30
0.0
  0
VERTEX
  5
4AC
330
494
100
AcDbEntity
  8
Sichtbare Kanten(TC_020513_DIN)
100
AcDbVertex
100
AcDb2dVertex
 10
243.8371750666699
 20
230.4091329698392
 30
0.0
  0
VERTEX
  5
4AD
330
494
100
AcDbEntity
  8
Sichtbare Kanten(TC_020513_DIN)
100
AcDbVertex
100
AcDb2dVertex
 10
243.8394162013135
 20
230.522820485098
 30
0.0
  0
VERTEX
  5
4AE
330
494
100
AcDbEntity
  8
Sichtbare Kanten(TC_020513_DIN)
100
AcDbVertex
100
AcDb2dVertex
 10
243.8401648356519
 20
230.6367702607938
 30
0.0
  0
SEQEND
  5
497
330
494
100
AcDbEntity
  8
Sichtbare Kanten(TC_020513_DIN)
  0
LINE
  5
4AF
330
37
100
AcDbEntity
  8
Sichtbare Kanten(TC_020513_DIN)
100
AcDbLine
 10
243.407153087434
 20
227.7973162786285
 30
0.0
 11
243.407153087434
 21
227.7263705190566
 31
0.0
  0
POLYLINE
  5
4B0
330
37
100
AcDbEntity
  8
Sichtbare Kanten(TC_020513_DIN)
100
AcDb2dPolyline
 66
     1
 10
0.0
 20
0.0
 30
0.0
 70
   128
  0
VERTEX
  5
4B1
330
4B0
100
AcDbEntity
  8
Sichtbare Kanten(TC_020513_DIN)
100
AcDbVertex
100
AcDb2dVertex
 10
243.8401648356519
 20
226.3066430215665
 30
0.0
  0
VERTEX
  5
4B2
330
4B0
100
AcDbEntity
  8
Sichtbare Kanten(TC_020513_DIN)
100
AcDbVertex
100
AcDb2dVertex
 10
243.8394162013135
 20
226.3636179094144
 30
0.0
  0
VERTEX
  5
4B4
330
4B0
100
AcDbEntity
  8
Sichtbare Kanten(TC_020513_DIN)
100
AcDbVertex
100
AcDb2dVertex
 10
243.8371750666699
 20
226.4204616670438
 30
0.0
  0
VERTEX
  5
4B5
330
4B0
100
AcDbEntity
  8
Sichtbare Kanten(TC_020513_DIN)
100
AcDbVertex
100
AcDb2dVertex
 10
243.833455736836
 20
226.4772195939847
 30
0.0
  0
VERTEX
  5
4B6
330
4B0
100
AcDbEntity
  8
Sichtbare Kanten(TC_020513_DIN)
100
AcDbVertex
100
AcDb2dVertex
 10
243.8282582118115
 20
226.5339369897672
 30
0.0
  0
VERTEX
  5
4B7
330
4B0
100
AcDbEntity
  8
Sichtbare Kanten(TC_020513_DIN)
100
AcDbVertex
100
AcDb2dVertex
 10
243.8215967967114
 20
226.5906543855496
 30
0.0
  0
VERTEX
  5
4B8
330
4B0
100
AcDbEntity
  8
Sichtbare Kanten(TC_020513_DIN)
100
AcDbVertex
100
AcDb2dVertex
 10
243.8134714915356
 20
226.6474146966764
 30
0.0
  0
VERTEX
  5
4B9
330
4B0
100
AcDbEntity
  8
Sichtbare Kanten(TC_020513_DIN)
100
AcDbVertex
100
AcDb2dVertex
 10
243.8038822962842
 20
226.7042632226773
 30
0.0
  0
VERTEX
  5
4BA
330
4B0
100
AcDbEntity
  8
Sichtbare Kanten(TC_020513_DIN)
100
AcDbVertex
100
AcDb2dVertex
 10
243.7928292109571
 20
226.761240494711
 30
0.0
  0
VERTEX
  5
4BB
330
4B0
100
AcDbEntity
  8
Sichtbare Kanten(TC_020513_DIN)
100
AcDbVertex
100
AcDb2dVertex
 10
243.7803074671826
 20
226.8183918123074
 30
0.0
  0
VERTEX
  5
4BC
330
4B0
100
AcDbEntity
  8
Sichtbare Kanten(TC_020513_DIN)
100
AcDbVertex
100
AcDb2dVertex
 10
243.7663122965894
 20
226.8757553224393
 30
0.0
  0
VERTEX
  5
4BD
330
4B0
100
AcDbEntity
  8
Sichtbare Kanten(TC_020513_DIN)
100
AcDbVertex
100
AcDb2dVertex
 10
243.7508341624341
 20
226.9333763246366
 30
0.0
  0
VERTEX
  5
4BE
330
4B0
100
AcDbEntity
  8
Sichtbare Kanten(TC_020513_DIN)
100
AcDbVertex
100
AcDb2dVertex
 10
243.7338682963452
 20
226.9912977342435
 30
0.0
  0
VERTEX
  5
4BF
330
4B0
100
AcDbEntity
  8
Sichtbare Kanten(TC_020513_DIN)
100
AcDbVertex
100
AcDb2dVertex
 10
243.715400393208
 20
227.0495624666043
 30
0.0
  0
VERTEX
  5
4C0
330
4B0
100
AcDbEntity
  8
Sichtbare Kanten(TC_020513_DIN)
100
AcDbVertex
100
AcDb2dVertex
 10
243.6954113795362
 20
227.1082158212491
 30
0.0
  0
VERTEX
  5
4C1
330
4B0
100
AcDbEntity
  8
Sichtbare Kanten(TC_020513_DIN)
100
AcDbVertex
100
AcDb2dVertex
 10
243.6738917185865
 20
227.1673007135221
 30
0.0
  0
VERTEX
  5
4C2
330
4B0
100
AcDbEntity
  8
Sichtbare Kanten(TC_020513_DIN)
100
AcDbVertex
100
AcDb2dVertex
 10
243.6508128001294
 20
227.226864827139
 30
0.0
  0
VERTEX
  5
4C3
330
4B0
100
AcDbEntity
  8
Sichtbare Kanten(TC_020513_DIN)
100
AcDbVertex
100
AcDb2dVertex
 10
243.6261650874219
 20
227.2869510774442
 30
0.0
  0
VERTEX
  5
4C4
330
4B0
100
AcDbEntity
  8
Sichtbare Kanten(TC_020513_DIN)
100
AcDbVertex
100
AcDb2dVertex
 10
243.5999152018628
 20
227.347611916525
 30
0.0
  0
VERTEX
  5
4C5
330
4B0
100
AcDbEntity
  8
Sichtbare Kanten(TC_020513_DIN)
100
AcDbVertex
100
AcDb2dVertex
 10
243.5720393015943
 20
227.4088902597257
 30
0.0
  0
VERTEX
  5
4C6
330
4B0
100
AcDbEntity
  8
Sichtbare Kanten(TC_020513_DIN)
100
AcDbVertex
100
AcDb2dVertex
 10
243.5425087763867
 20
227.4708385591336
 30
0.0
  0
VERTEX
  5
4C7
330
4B0
100
AcDbEntity
  8
Sichtbare Kanten(TC_020513_DIN)
100
AcDbVertex
100
AcDb2dVertex
 10
243.5112902476392
 20
227.5335068826505
 30
0.0
  0
VERTEX
  5
4C8
330
4B0
100
AcDbEntity
  8
Sichtbare Kanten(TC_020513_DIN)
100
AcDbVertex
100
AcDb2dVertex
 10
243.4783503367505
 20
227.5969500665494
 30
0.0
  0
VERTEX
  5
4C9
330
4B0
100
AcDbEntity
  8
Sichtbare Kanten(TC_020513_DIN)
100
AcDbVertex
100
AcDb2dVertex
 10
243.4436508967481
 20
227.661218178732
 30
0.0
  0
VERTEX
  5
4CA
330
4B0
100
AcDbEntity
  8
Sichtbare Kanten(TC_020513_DIN)
100
AcDbVertex
100
AcDb2dVertex
 10
243.4071537806592
 20
227.7263708238431
 30
0.0
  0
SEQEND
  5
4B3
330
4B0
100
AcDbEntity
  8
Sichtbare Kanten(TC_020513_DIN)
  0
LINE
  5
4CB
330
37
100
AcDbEntity
  8
Sichtbare Kanten(TC_020513_DIN)
100
AcDbLine
 10
243.8401657893262
 20
226.3066434326065
 30
0.0
 11
243.8401657893262
 21
230.6367704515287
 31
0.0
  0
POLYLINE
  5
4CC
330
37
100
AcDbEntity
  8
Sichtbare Kanten(TC_020513_DIN)
100
AcDb2dPolyline
 66
     1
 10
0.0
 20
0.0
 30
0.0
 70
   128
  0
VERTEX
  5
4CD
330
4CC
100
AcDbEntity
  8
Sichtbare Kanten(TC_020513_DIN)
100
AcDbVertex
100
AcDb2dVertex
 10
243.4071537806592
 20
233.5471696977445
 30
0.0
  0
VERTEX
  5
4CE
330
4CC
100
AcDbEntity
  8
Sichtbare Kanten(TC_020513_DIN)
100
AcDbVertex
100
AcDb2dVertex
 10
243.4436508967481
 20
233.6123223428555
 30
0.0
  0
VERTEX
  5
4D0
330
4CC
100
AcDbEntity
  8
Sichtbare Kanten(TC_020513_DIN)
100
AcDbVertex
100
AcDb2dVertex
 10
243.4783503367505
 20
233.6765904550382
 30
0.0
  0
VERTEX
  5
4D1
330
4CC
100
AcDbEntity
  8
Sichtbare Kanten(TC_020513_DIN)
100
AcDbVertex
100
AcDb2dVertex
 10
243.5112902476392
 20
233.7400336389371
 30
0.0
  0
VERTEX
  5
4D2
330
4CC
100
AcDbEntity
  8
Sichtbare Kanten(TC_020513_DIN)
100
AcDbVertex
100
AcDb2dVertex
 10
243.5425087763867
 20
233.802701962454
 30
0.0
  0
VERTEX
  5
4D3
330
4CC
100
AcDbEntity
  8
Sichtbare Kanten(TC_020513_DIN)
100
AcDbVertex
100
AcDb2dVertex
 10
243.5720393015943
 20
233.8646502618619
 30
0.0
  0
VERTEX
  5
4D4
330
4CC
100
AcDbEntity
  8
Sichtbare Kanten(TC_020513_DIN)
100
AcDbVertex
100
AcDb2dVertex
 10
243.5999152018628
 20
233.9259309892484
 30
0.0
  0
VERTEX
  5
4D5
330
4CC
100
AcDbEntity
  8
Sichtbare Kanten(TC_020513_DIN)
100
AcDbVertex
100
AcDb2dVertex
 10
243.6261650874219
 20
233.9865894441434
 30
0.0
  0
VERTEX
  5
4D6
330
4CC
100
AcDbEntity
  8
Sichtbare Kanten(TC_020513_DIN)
100
AcDbVertex
100
AcDb2dVertex
 10
243.6508128001294
 20
234.0466780786344
 30
0.0
  0
VERTEX
  5
4D7
330
4CC
100
AcDbEntity
  8
Sichtbare Kanten(TC_020513_DIN)
100
AcDbVertex
100
AcDb2dVertex
 10
243.6738917185865
 20
234.1062398080655
 30
0.0
  0
VERTEX
  5
4D8
330
4CC
100
AcDbEntity
  8
Sichtbare Kanten(TC_020513_DIN)
100
AcDbVertex
100
AcDb2dVertex
 10
243.6954113795362
 20
234.1653270845243
 30
0.0
  0
VERTEX
  5
4D9
330
4CC
100
AcDbEntity
  8
Sichtbare Kanten(TC_020513_DIN)
100
AcDbVertex
100
AcDb2dVertex
 10
243.715400393208
 20
234.2239780549832
 30
0.0
  0
VERTEX
  5
4DA
330
4CC
100
AcDbEntity
  8
Sichtbare Kanten(TC_020513_DIN)
100
AcDbVertex
100
AcDb2dVertex
 10
243.7338682963452
 20
234.2822451715299
 30
0.0
  0
VERTEX
  5
4DB
330
4CC
100
AcDbEntity
  8
Sichtbare Kanten(TC_020513_DIN)
100
AcDbVertex
100
AcDb2dVertex
 10
243.7508341624341
 20
234.3401665811368
 30
0.0
  0
VERTEX
  5
4DC
330
4CC
100
AcDbEntity
  8
Sichtbare Kanten(TC_020513_DIN)
100
AcDbVertex
100
AcDb2dVertex
 10
243.7663122965894
 20
234.3977875833341
 30
0.0
  0
VERTEX
  5
4DD
330
4CC
100
AcDbEntity
  8
Sichtbare Kanten(TC_020513_DIN)
100
AcDbVertex
100
AcDb2dVertex
 10
243.7803074671826
 20
234.4551510934659
 30
0.0
  0
VERTEX
  5
4DE
330
4CC
100
AcDbEntity
  8
Sichtbare Kanten(TC_020513_DIN)
100
AcDbVertex
100
AcDb2dVertex
 10
243.7928292109571
 20
234.5123000268765
 30
0.0
  0
VERTEX
  5
4DF
330
4CC
100
AcDbEntity
  8
Sichtbare Kanten(TC_020513_DIN)
100
AcDbVertex
100
AcDb2dVertex
 10
243.8038822962842
 20
234.5692772989103
 30
0.0
  0
VERTEX
  5
4E0
330
4CC
100
AcDbEntity
  8
Sichtbare Kanten(TC_020513_DIN)
100
AcDbVertex
100
AcDb2dVertex
 10
243.8134714915356
 20
234.6261258249112
 30
0.0
  0
VERTEX
  5
4E1
330
4CC
100
AcDbEntity
  8
Sichtbare Kanten(TC_020513_DIN)
100
AcDbVertex
100
AcDb2dVertex
 10
243.8215967967114
 20
234.6828861360379
 30
0.0
  0
VERTEX
  5
4E2
330
4CC
100
AcDbEntity
  8
Sichtbare Kanten(TC_020513_DIN)
100
AcDbVertex
100
AcDb2dVertex
 10
243.8282582118115
 20
234.7396035318204
 30
0.0
  0
VERTEX
  5
4E3
330
4CC
100
AcDbEntity
  8
Sichtbare Kanten(TC_020513_DIN)
100
AcDbVertex
100
AcDb2dVertex
 10
243.833455736836
 20
234.7963209276028
 30
0.0
  0
VERTEX
  5
4E4
330
4CC
100
AcDbEntity
  8
Sichtbare Kanten(TC_020513_DIN)
100
AcDbVertex
100
AcDb2dVertex
 10
243.8371750666699
 20
234.8530788545438
 30
0.0
  0
VERTEX
  5
4E5
330
4CC
100
AcDbEntity
  8
Sichtbare Kanten(TC_020513_DIN)
100
AcDbVertex
100
AcDb2dVertex
 10
243.8394162013135
 20
234.9099226121732
 30
0.0
  0
VERTEX
  5
4E6
330
4CC
100
AcDbEntity
  8
Sichtbare Kanten(TC_020513_DIN)
100
AcDbVertex
100
AcDb2dVertex
 10
243.8401648356519
 20
234.9668975000211
 30
0.0
  0
SEQEND
  5
4CF
330
4CC
100
AcDbEntity
  8
Sichtbare Kanten(TC_020513_DIN)
  0
LINE
  5
4E7
330
37
100
AcDbEntity
  8
Sichtbare Kanten(TC_020513_DIN)
100
AcDbLine
 10
243.407153087434
 20
233.5471703840008
 30
0.0
 11
243.407153087434
 21
233.4762246244288
 31
0.0
  0
POLYLINE
  5
4E8
330
37
100
AcDbEntity
  8
Sichtbare Kanten(TC_020513_DIN)
100
AcDb2dPolyline
 66
     1
 10
0.0
 20
0.0
 30
0.0
 70
   128
  0
VERTEX
  5
4E9
330
4E8
100
AcDbEntity
  8
Sichtbare Kanten(TC_020513_DIN)
100
AcDbVertex
100
AcDb2dVertex
 10
243.8401648356519
 20
230.6367702607938
 30
0.0
  0
VERTEX
  5
4EA
330
4E8
100
AcDbEntity
  8
Sichtbare Kanten(TC_020513_DIN)
100
AcDbVertex
100
AcDb2dVertex
 10
243.8394162013135
 20
230.7507200364896
 30
0.0
  0
VERTEX
  5
4EC
330
4E8
100
AcDbEntity
  8
Sichtbare Kanten(TC_020513_DIN)
100
AcDbVertex
100
AcDb2dVertex
 10
243.8371750666699
 20
230.8644075517484
 30
0.0
  0
VERTEX
  5
4ED
330
4E8
100
AcDbEntity
  8
Sichtbare Kanten(TC_020513_DIN)
100
AcDbVertex
100
AcDb2dVertex
 10
243.833455736836
 20
230.977925789816
 30
0.0
  0
VERTEX
  5
4EE
330
4E8
100
AcDbEntity
  8
Sichtbare Kanten(TC_020513_DIN)
100
AcDbVertex
100
AcDb2dVertex
 10
243.8282582118115
 20
231.0913581971952
 30
0.0
  0
VERTEX
  5
4EF
330
4E8
100
AcDbEntity
  8
Sichtbare Kanten(TC_020513_DIN)
100
AcDbVertex
100
AcDb2dVertex
 10
243.8215967967114
 20
231.2047929887601
 30
0.0
  0
VERTEX
  5
4F0
330
4E8
100
AcDbEntity
  8
Sichtbare Kanten(TC_020513_DIN)
100
AcDbVertex
100
AcDb2dVertex
 10
243.8134714915356
 20
231.3183159951993
 30
0.0
  0
VERTEX
  5
4F1
330
4E8
100
AcDbEntity
  8
Sichtbare Kanten(TC_020513_DIN)
100
AcDbVertex
100
AcDb2dVertex
 10
243.8038822962842
 20
231.4320106630155
 30
0.0
  0
VERTEX
  5
4F2
330
4E8
100
AcDbEntity
  8
Sichtbare Kanten(TC_020513_DIN)
100
AcDbVertex
100
AcDb2dVertex
 10
243.7928292109571
 20
231.5459675912686
 30
0.0
  0
VERTEX
  5
4F3
330
4E8
100
AcDbEntity
  8
Sichtbare Kanten(TC_020513_DIN)
100
AcDbVertex
100
AcDb2dVertex
 10
243.7803074671826
 20
231.6602654580899
 30
0.0
  0
VERTEX
  5
4F4
330
4E8
100
AcDbEntity
  8
Sichtbare Kanten(TC_020513_DIN)
100
AcDbVertex
100
AcDb2dVertex
 10
243.7663122965894
 20
231.7749924783536
 30
0.0
  0
VERTEX
  5
4F5
330
4E8
100
AcDbEntity
  8
Sichtbare Kanten(TC_020513_DIN)
100
AcDbVertex
100
AcDb2dVertex
 10
243.7508341624341
 20
231.8902344827481
 30
0.0
  0
VERTEX
  5
4F6
330
4E8
100
AcDbEntity
  8
Sichtbare Kanten(TC_020513_DIN)
100
AcDbVertex
100
AcDb2dVertex
 10
243.7338682963452
 20
232.006077301962
 30
0.0
  0
VERTEX
  5
4F7
330
4E8
100
AcDbEntity
  8
Sichtbare Kanten(TC_020513_DIN)
100
AcDbVertex
100
AcDb2dVertex
 10
243.715400393208
 20
232.1226067666837
 30
0.0
  0
VERTEX
  5
4F8
330
4E8
100
AcDbEntity
  8
Sichtbare Kanten(TC_020513_DIN)
100
AcDbVertex
100
AcDb2dVertex
 10
243.6954113795362
 20
232.2399134759732
 30
0.0
  0
VERTEX
  5
4F9
330
4E8
100
AcDbEntity
  8
Sichtbare Kanten(TC_020513_DIN)
100
AcDbVertex
100
AcDb2dVertex
 10
243.6738917185865
 20
232.3580832605191
 30
0.0
  0
VERTEX
  5
4FA
330
4E8
100
AcDbEntity
  8
Sichtbare Kanten(TC_020513_DIN)
100
AcDbVertex
100
AcDb2dVertex
 10
243.6508128001294
 20
232.477211487753
 30
0.0
  0
VERTEX
  5
4FB
330
4E8
100
AcDbEntity
  8
Sichtbare Kanten(TC_020513_DIN)
100
AcDbVertex
100
AcDb2dVertex
 10
243.6261650874219
 20
232.5973863725491
 30
0.0
  0
VERTEX
  5
4FC
330
4E8
100
AcDbEntity
  8
Sichtbare Kanten(TC_020513_DIN)
100
AcDbVertex
100
AcDb2dVertex
 10
243.5999152018628
 20
232.718705666525
 30
0.0
  0
VERTEX
  5
4FD
330
4E8
100
AcDbEntity
  8
Sichtbare Kanten(TC_020513_DIN)
100
AcDbVertex
100
AcDb2dVertex
 10
243.5720393015943
 20
232.8412647371121
 30
0.0
  0
VERTEX
  5
4FE
330
4E8
100
AcDbEntity
  8
Sichtbare Kanten(TC_020513_DIN)
100
AcDbVertex
100
AcDb2dVertex
 10
243.5425087763867
 20
232.9651613359281
 30
0.0
  0
VERTEX
  5
4FF
330
4E8
100
AcDbEntity
  8
Sichtbare Kanten(TC_020513_DIN)
100
AcDbVertex
100
AcDb2dVertex
 10
243.5112902476392
 20
233.0904979829618
 30
0.0
  0
VERTEX
  5
500
330
4E8
100
AcDbEntity
  8
Sichtbare Kanten(TC_020513_DIN)
100
AcDbVertex
100
AcDb2dVertex
 10
243.4783503367505
 20
233.2173819665738
 30
0.0
  0
VERTEX
  5
501
330
4E8
100
AcDbEntity
  8
Sichtbare Kanten(TC_020513_DIN)
100
AcDbVertex
100
AcDb2dVertex
 10
243.4436508967481
 20
233.3459205751248
 30
0.0
  0
VERTEX
  5
502
330
4E8
100
AcDbEntity
  8
Sichtbare Kanten(TC_020513_DIN)
100
AcDbVertex
100
AcDb2dVertex
 10
243.4071537806592
 20
233.4762234811612
 30
0.0
  0
SEQEND
  5
4EB
330
4E8
100
AcDbEntity
  8
Sichtbare Kanten(TC_020513_DIN)
  0
LINE
  5
503
330
37
100
AcDbEntity
  8
Sichtbare Kanten(TC_020513_DIN)
100
AcDbLine
 10
243.8401657893262
 20
230.6367704515287
 30
0.0
 11
243.8401657893262
 21
234.9668974704508
 31
0.0
  0
POLYLINE
  5
504
330
37
100
AcDbEntity
  8
Sichtbare Kanten(TC_020513_DIN)
100
AcDb2dPolyline
 66
     1
 10
0.0
 20
0.0
 30
0.0
 70
   128
  0
VERTEX
  5
505
330
504
100
AcDbEntity
  8
Sichtbare Kanten(TC_020513_DIN)
100
AcDbVertex
100
AcDb2dVertex
 10
243.8401648356519
 20
234.9668975000211
 30
0.0
  0
VERTEX
  5
506
330
504
100
AcDbEntity
  8
Sichtbare Kanten(TC_020513_DIN)
100
AcDbVertex
100
AcDb2dVertex
 10
243.8394162013135
 20
235.023872387869
 30
0.0
  0
VERTEX
  5
508
330
504
100
AcDbEntity
  8
Sichtbare Kanten(TC_020513_DIN)
100
AcDbVertex
100
AcDb2dVertex
 10
243.8371750666699
 20
235.0807161454984
 30
0.0
  0
VERTEX
  5
509
330
504
100
AcDbEntity
  8
Sichtbare Kanten(TC_020513_DIN)
100
AcDbVertex
100
AcDb2dVertex
 10
243.833455736836
 20
235.1374740724393
 30
0.0
  0
VERTEX
  5
50A
330
504
100
AcDbEntity
  8
Sichtbare Kanten(TC_020513_DIN)
100
AcDbVertex
100
AcDb2dVertex
 10
243.8282582118115
 20
235.1941914682218
 30
0.0
  0
VERTEX
  5
50B
330
504
100
AcDbEntity
  8
Sichtbare Kanten(TC_020513_DIN)
100
AcDbVertex
100
AcDb2dVertex
 10
243.8215967967114
 20
235.2509088640042
 30
0.0
  0
VERTEX
  5
50C
330
504
100
AcDbEntity
  8
Sichtbare Kanten(TC_020513_DIN)
100
AcDbVertex
100
AcDb2dVertex
 10
243.8134714915356
 20
235.3076691751309
 30
0.0
  0
VERTEX
  5
50D
330
504
100
AcDbEntity
  8
Sichtbare Kanten(TC_020513_DIN)
100
AcDbVertex
100
AcDb2dVertex
 10
243.8038822962842
 20
235.3645177011319
 30
0.0
  0
VERTEX
  5
50E
330
504
100
AcDbEntity
  8
Sichtbare Kanten(TC_020513_DIN)
100
AcDbVertex
100
AcDb2dVertex
 10
243.7928292109571
 20
235.4214949731656
 30
0.0
  0
VERTEX
  5
50F
330
504
100
AcDbEntity
  8
Sichtbare Kanten(TC_020513_DIN)
100
AcDbVertex
100
AcDb2dVertex
 10
243.7803074671826
 20
235.4786439065763
 30
0.0
  0
VERTEX
  5
510
330
504
100
AcDbEntity
  8
Sichtbare Kanten(TC_020513_DIN)
100
AcDbVertex
100
AcDb2dVertex
 10
243.7663122965894
 20
235.5360074167081
 30
0.0
  0
VERTEX
  5
511
330
504
100
AcDbEntity
  8
Sichtbare Kanten(TC_020513_DIN)
100
AcDbVertex
100
AcDb2dVertex
 10
243.7508341624341
 20
235.5936284189053
 30
0.0
  0
VERTEX
  5
512
330
504
100
AcDbEntity
  8
Sichtbare Kanten(TC_020513_DIN)
100
AcDbVertex
100
AcDb2dVertex
 10
243.7338682963452
 20
235.6515498285123
 30
0.0
  0
VERTEX
  5
513
330
504
100
AcDbEntity
  8
Sichtbare Kanten(TC_020513_DIN)
100
AcDbVertex
100
AcDb2dVertex
 10
243.715400393208
 20
235.7098169450589
 30
0.0
  0
VERTEX
  5
514
330
504
100
AcDbEntity
  8
Sichtbare Kanten(TC_020513_DIN)
100
AcDbVertex
100
AcDb2dVertex
 10
243.6954113795362
 20
235.7684679155179
 30
0.0
  0
VERTEX
  5
515
330
504
100
AcDbEntity
  8
Sichtbare Kanten(TC_020513_DIN)
100
AcDbVertex
100
AcDb2dVertex
 10
243.6738917185865
 20
235.8275551919767
 30
0.0
  0
VERTEX
  5
516
330
504
100
AcDbEntity
  8
Sichtbare Kanten(TC_020513_DIN)
100
AcDbVertex
100
AcDb2dVertex
 10
243.6508128001294
 20
235.8871169214078
 30
0.0
  0
VERTEX
  5
517
330
504
100
AcDbEntity
  8
Sichtbare Kanten(TC_020513_DIN)
100
AcDbVertex
100
AcDb2dVertex
 10
243.6261650874219
 20
235.9472055558988
 30
0.0
  0
VERTEX
  5
518
330
504
100
AcDbEntity
  8
Sichtbare Kanten(TC_020513_DIN)
100
AcDbVertex
100
AcDb2dVertex
 10
243.5999152018628
 20
236.0078640107938
 30
0.0
  0
VERTEX
  5
519
330
504
100
AcDbEntity
  8
Sichtbare Kanten(TC_020513_DIN)
100
AcDbVertex
100
AcDb2dVertex
 10
243.5720393015943
 20
236.0691447381803
 30
0.0
  0
VERTEX
  5
51A
330
504
100
AcDbEntity
  8
Sichtbare Kanten(TC_020513_DIN)
100
AcDbVertex
100
AcDb2dVertex
 10
243.5425087763867
 20
236.1310930375882
 30
0.0
  0
VERTEX
  5
51B
330
504
100
AcDbEntity
  8
Sichtbare Kanten(TC_020513_DIN)
100
AcDbVertex
100
AcDb2dVertex
 10
243.5112902476392
 20
236.1937613611051
 30
0.0
  0
VERTEX
  5
51C
330
504
100
AcDbEntity
  8
Sichtbare Kanten(TC_020513_DIN)
100
AcDbVertex
100
AcDb2dVertex
 10
243.4783503367505
 20
236.257204545004
 30
0.0
  0
VERTEX
  5
51D
330
504
100
AcDbEntity
  8
Sichtbare Kanten(TC_020513_DIN)
100
AcDbVertex
100
AcDb2dVertex
 10
243.4436508967481
 20
236.3214726571866
 30
0.0
  0
VERTEX
  5
51E
330
504
100
AcDbEntity
  8
Sichtbare Kanten(TC_020513_DIN)
100
AcDbVertex
100
AcDb2dVertex
 10
243.4071537806592
 20
236.3866253022977
 30
0.0
  0
SEQEND
  5
507
330
504
100
AcDbEntity
  8
Sichtbare Kanten(TC_020513_DIN)
  0
LINE
  5
51F
330
37
100
AcDbEntity
  8
Sichtbare Kanten(TC_020513_DIN)
100
AcDbLine
 10
243.8401657893262
 20
234.9668974704508
 30
0.0
 11
243.8401657893262
 21
235.6367704515287
 31
0.0
  0
LINE
  5
520
330
37
100
AcDbEntity
  8
Sichtbare Kanten(TC_020513_DIN)
100
AcDbLine
 10
243.407153087434
 20
236.3867704515286
 30
0.0
 11
243.407153087434
 21
236.3866245569009
 31
0.0
  0
LINE
  5
521
330
37
100
AcDbEntity
  8
Sichtbare Kanten(TC_020513_DIN)
100
AcDbLine
 10
94.34016578932617
 20
225.6367704515287
 30
0.0
 11
94.7731784912184
 21
224.8867704515287
 31
0.0
  0
LINE
  5
522
330
37
100
AcDbEntity
  8
Sichtbare Kanten(TC_020513_DIN)
100
AcDbLine
 10
94.34016578932617
 20
235.6367704515287
 30
0.0
 11
94.77317849121844
 21
236.3867704515286
 31
0.0
  0
LINE
  5
523
330
37
100
AcDbEntity
  8
Sichtbare Kanten(TC_020513_DIN)
100
AcDbLine
 10
243.8401657893262
 20
225.6367704515287
 30
0.0
 11
243.407153087434
 21
224.8867704515287
 31
0.0
  0
LINE
  5
524
330
37
100
AcDbEntity
  8
Sichtbare Kanten(TC_020513_DIN)
100
AcDbLine
 10
243.8401657893262
 20
235.6367704515287
 30
0.0
 11
243.4071530874339
 21
236.3867704515286
 31
0.0
  0
LINE
  5
525
330
37
100
AcDbEntity
  8
Sichtbare Kanten(TC_020513_DIN)
100
AcDbLine
 10
94.7731784912184
 20
236.3866245569009
 30
0.0
 11
97.34016578932617
 21
236.3866245569009
 31
0.0
  0
LINE
  5
526
330
37
100
AcDbEntity
  8
Sichtbare Kanten(TC_020513_DIN)
100
AcDbLine
 10
97.34016578932617
 20
233.5471703840008
 30
0.0
 11
94.7731784912184
 21
233.5471703840008
 31
0.0
  0
LINE
  5
527
330
37
100
AcDbEntity
  8
Sichtbare Kanten(TC_020513_DIN)
100
AcDbLine
 10
97.34016578932617
 20
236.3866245569009
 30
0.0
 11
97.34016578932617
 21
233.5471703840008
 31
0.0
  0
LINE
  5
528
330
37
100
AcDbEntity
  8
Sichtbare Kanten(TC_020513_DIN)
100
AcDbLine
 10
94.7731784912184
 20
233.4762246244288
 30
0.0
 11
97.34016578932617
 21
233.4762246244288
 31
0.0
  0
LINE
  5
529
330
37
100
AcDbEntity
  8
Sichtbare Kanten(TC_020513_DIN)
100
AcDbLine
 10
97.34016578932617
 20
224.8869163461564
 30
0.0
 11
94.7731784912184
 21
224.8869163461564
 31
0.0
  0
LINE
  5
52A
330
37
100
AcDbEntity
  8
Sichtbare Kanten(TC_020513_DIN)
100
AcDbLine
 10
97.34016578932617
 20
227.7263705190565
 30
0.0
 11
97.34016578932617
 21
224.8869163461564
 31
0.0
  0
LINE
  5
52B
330
37
100
AcDbEntity
  8
Sichtbare Kanten(TC_020513_DIN)
100
AcDbLine
 10
94.7731784912184
 20
227.7263705190565
 30
0.0
 11
97.34016578932617
 21
227.7263705190565
 31
0.0
  0
LINE
  5
52C
330
37
100
AcDbEntity
  8
Sichtbare Kanten(TC_020513_DIN)
100
AcDbLine
 10
97.34016578932617
 20
227.7973162786285
 30
0.0
 11
94.7731784912184
 21
227.7973162786285
 31
0.0
  0
LINE
  5
52D
330
37
100
AcDbEntity
  8
Sichtbare Kanten(TC_020513_DIN)
100
AcDbLine
 10
97.34016578932617
 20
233.4762246244288
 30
0.0
 11
97.34016578932617
 21
227.7973162786285
 31
0.0
  0
LINE
  5
52E
330
37
100
AcDbEntity
  8
Sichtbare Kanten(TC_020513_DIN)
100
AcDbLine
 10
240.8401657893262
 20
236.3866245569009
 30
0.0
 11
243.407153087434
 21
236.3866245569009
 31
0.0
  0
LINE
  5
52F
330
37
100
AcDbEntity
  8
Sichtbare Kanten(TC_020513_DIN)
100
AcDbLine
 10
240.8401657893262
 20
227.7263705190565
 30
0.0
 11
243.407153087434
 21
227.7263705190565
 31
0.0
  0
LINE
  5
530
330
37
100
AcDbEntity
  8
Sichtbare Kanten(TC_020513_DIN)
100
AcDbLine
 10
240.8401657893262
 20
224.8869163461564
 30
0.0
 11
240.8401657893262
 21
227.7263705190565
 31
0.0
  0
LINE
  5
531
330
37
100
AcDbEntity
  8
Sichtbare Kanten(TC_020513_DIN)
100
AcDbLine
 10
243.407153087434
 20
224.8869163461564
 30
0.0
 11
240.8401657893262
 21
224.8869163461564
 31
0.0
  0
LINE
  5
532
330
37
100
AcDbEntity
  8
Sichtbare Kanten(TC_020513_DIN)
100
AcDbLine
 10
240.8401657893262
 20
233.5471703840008
 30
0.0
 11
240.8401657893262
 21
236.3866245569009
 31
0.0
  0
LINE
  5
533
330
37
100
AcDbEntity
  8
Sichtbare Kanten(TC_020513_DIN)
100
AcDbLine
 10
243.407153087434
 20
233.5471703840008
 30
0.0
 11
240.8401657893262
 21
233.5471703840008
 31
0.0
  0
LINE
  5
534
330
37
100
AcDbEntity
  8
Sichtbare Kanten(TC_020513_DIN)
100
AcDbLine
 10
240.8401657893262
 20
233.4762246244288
 30
0.0
 11
243.407153087434
 21
233.4762246244288
 31
0.0
  0
LINE
  5
535
330
37
100
AcDbEntity
  8
Sichtbare Kanten(TC_020513_DIN)
100
AcDbLine
 10
240.8401657893262
 20
227.7973162786285
 30
0.0
 11
240.8401657893262
 21
233.4762246244288
 31
0.0
  0
LINE
  5
536
330
37
100
AcDbEntity
  8
Sichtbare Kanten(TC_020513_DIN)
100
AcDbLine
 10
243.407153087434
 20
227.7973162786285
 30
0.0
 11
240.8401657893262
 21
227.7973162786285
 31
0.0
  0
LINE
  5
537
330
37
100
AcDbEntity
  8
Sichtbare Kanten(TC_020513_DIN)
100
AcDbLine
 10
97.34016578932617
 20
236.3867704515286
 30
0.0
 11
97.34016578932617
 21
236.3866245569009
 31
0.0
  0
LINE
  5
538
330
37
100
AcDbEntity
  8
Sichtbare Kanten(TC_020513_DIN)
100
AcDbLine
 10
97.34016578932617
 20
233.5471703840008
 30
0.0
 11
97.34016578932617
 21
233.4762246244288
 31
0.0
  0
LINE
  5
539
330
37
100
AcDbEntity
  8
Sichtbare Kanten(TC_020513_DIN)
100
AcDbLine
 10
97.34016578932617
 20
227.7973162786284
 30
0.0
 11
97.34016578932617
 21
227.7263705190565
 31
0.0
  0
LINE
  5
53A
330
37
100
AcDbEntity
  8
Sichtbare Kanten(TC_020513_DIN)
100
AcDbLine
 10
97.34016578932617
 20
224.8869163461564
 30
0.0
 11
97.34016578932617
 21
224.8867704515286
 31
0.0
  0
LINE
  5
53B
330
37
100
AcDbEntity
  8
Sichtbare Kanten(TC_020513_DIN)
100
AcDbLine
 10
240.8401657893262
 20
236.3867704515286
 30
0.0
 11
240.8401657893262
 21
236.3866245569009
 31
0.0
  0
LINE
  5
53C
330
37
100
AcDbEntity
  8
Sichtbare Kanten(TC_020513_DIN)
100
AcDbLine
 10
240.8401657893262
 20
224.8869163461564
 30
0.0
 11
240.8401657893262
 21
224.8867704515286
 31
0.0
  0
LINE
  5
53D
330
37
100
AcDbEntity
  8
Sichtbare Kanten(TC_020513_DIN)
100
AcDbLine
 10
240.8401657893262
 20
227.7973162786284
 30
0.0
 11
240.8401657893262
 21
227.7263705190565
 31
0.0
  0
LINE
  5
53E
330
37
100
AcDbEntity
  8
Sichtbare Kanten(TC_020513_DIN)
100
AcDbLine
 10
240.8401657893262
 20
233.5471703840008
 30
0.0
 11
240.8401657893262
 21
233.4762246244288
 31
0.0
  0
LINE
  5
53F
330
37
100
AcDbEntity
  8
Sichtbare Kanten(TC_020513_DIN)
100
AcDbLine
 10
97.34016578932617
 20
236.3867704515286
 30
0.0
 11
94.7731784912184
 21
236.3867704515286
 31
0.0
  0
LINE
  5
540
330
37
100
AcDbEntity
  8
Sichtbare Kanten(TC_020513_DIN)
100
AcDbLine
 10
97.34016578932617
 20
224.8867704515287
 30
0.0
 11
94.7731784912184
 21
224.8867704515287
 31
0.0
  0
LINE
  5
541
330
37
100
AcDbEntity
  8
Sichtbare Kanten(TC_020513_DIN)
100
AcDbLine
 10
101.3401657893261
 20
226.7367704515286
 30
0.0
 11
99.99016578932618
 21
226.7367704515286
 31
0.0
  0
LINE
  5
542
330
37
100
AcDbEntity
  8
Sichtbare Kanten(TC_020513_DIN)
100
AcDbLine
 10
98.59016578932617
 20
226.7367704515286
 30
0.0
 11
97.34016578932617
 21
226.7367704515286
 31
0.0
  0
LINE
  5
543
330
37
100
AcDbEntity
  8
Sichtbare Kanten(TC_020513_DIN)
100
AcDbLine
 10
101.3401657893261
 20
234.5367704515286
 30
0.0
 11
99.99016578932618
 21
234.5367704515286
 31
0.0
  0
LINE
  5
544
330
37
100
AcDbEntity
  8
Sichtbare Kanten(TC_020513_DIN)
100
AcDbLine
 10
98.59016578932617
 20
234.5367704515286
 30
0.0
 11
97.34016578932617
 21
234.5367704515286
 31
0.0
  0
LINE
  5
545
330
37
100
AcDbEntity
  8
Sichtbare Kanten(TC_020513_DIN)
100
AcDbLine
 10
243.407153087434
 20
236.3867704515286
 30
0.0
 11
240.8401657893262
 21
236.3867704515286
 31
0.0
  0
LINE
  5
546
330
37
100
AcDbEntity
  8
Sichtbare Kanten(TC_020513_DIN)
100
AcDbLine
 10
243.407153087434
 20
224.8867704515287
 30
0.0
 11
240.8401657893262
 21
224.8867704515287
 31
0.0
  0
LINE
  5
547
330
37
100
AcDbEntity
  8
Sichtbare Kanten(TC_020513_DIN)
100
AcDbLine
 10
240.8401657893262
 20
226.7367704515286
 30
0.0
 11
239.5901657893262
 21
226.7367704515286
 31
0.0
  0
LINE
  5
548
330
37
100
AcDbEntity
  8
Sichtbare Kanten(TC_020513_DIN)
100
AcDbLine
 10
238.1901657893262
 20
226.7367704515286
 30
0.0
 11
236.8401657893263
 21
226.7367704515286
 31
0.0
  0
LINE
  5
549
330
37
100
AcDbEntity
  8
Sichtbare Kanten(TC_020513_DIN)
100
AcDbLine
 10
240.8401657893262
 20
234.5367704515286
 30
0.0
 11
239.5901657893262
 21
234.5367704515286
 31
0.0
  0
LINE
  5
54A
330
37
100
AcDbEntity
  8
Sichtbare Kanten(TC_020513_DIN)
100
AcDbLine
 10
238.1901657893262
 20
234.5367704515286
 30
0.0
 11
236.8401657893262
 21
234.5367704515286
 31
0.0
  0
LINE
  5
54B
330
37
100
AcDbEntity
  8
Sichtbare Kanten(TC_020513_DIN)
100
AcDbLine
 10
236.9401657893263
 20
237.6367704515287
 30
0.0
 11
220.8401657893262
 21
237.6367704515287
 31
0.0
  0
LINE
  5
54C
330
37
100
AcDbEntity
  8
Sichtbare Kanten(TC_020513_DIN)
100
AcDbLine
 10
117.3401657893262
 20
237.6367704515287
 30
0.0
 11
220.8401657893262
 21
237.6367704515287
 31
0.0
  0
LINE
  5
54D
330
37
100
AcDbEntity
  8
Sichtbare Kanten(TC_020513_DIN)
100
AcDbLine
 10
117.3401657893261
 20
237.6367704515287
 30
0.0
 11
101.2401657893261
 21
237.6367704515287
 31
0.0
  0
LINE
  5
54E
330
37
100
AcDbEntity
  8
Sichtbare Kanten(TC_020513_DIN)
100
AcDbLine
 10
101.2401657893261
 20
243.1367704515287
 30
0.0
 11
101.2401657893261
 21
237.6367704515287
 31
0.0
  0
LINE
  5
54F
330
37
100
AcDbEntity
  8
Sichtbare Kanten(TC_020513_DIN)
100
AcDbLine
 10
117.3401657893261
 20
243.1367704515287
 30
0.0
 11
101.2401657893261
 21
243.1367704515287
 31
0.0
  0
LINE
  5
550
330
37
100
AcDbEntity
  8
Sichtbare Kanten(TC_020513_DIN)
100
AcDbLine
 10
117.3401657893262
 20
243.1367704515287
 30
0.0
 11
220.8401657893262
 21
243.1367704515287
 31
0.0
  0
LINE
  5
551
330
37
100
AcDbEntity
  8
Sichtbare Kanten(TC_020513_DIN)
100
AcDbLine
 10
236.9401657893263
 20
243.1367704515287
 30
0.0
 11
236.9401657893263
 21
237.6367704515287
 31
0.0
  0
LINE
  5
552
330
37
100
AcDbEntity
  8
Sichtbare Kanten(TC_020513_DIN)
100
AcDbLine
 10
236.9401657893263
 20
243.1367704515287
 30
0.0
 11
220.8401657893262
 21
243.1367704515287
 31
0.0
  0
LINE
  5
553
330
37
100
AcDbEntity
  8
Sichtbare Kanten(TC_020513_DIN)
100
AcDbLine
 10
133.8401657893262
 20
245.6367704515287
 30
0.0
 11
134.3401657893262
 21
245.6367704515287
 31
0.0
  0
LINE
  5
554
330
37
100
AcDbEntity
  8
Sichtbare Kanten(TC_020513_DIN)
100
AcDbLine
 10
138.3401657893262
 20
245.6367704515287
 30
0.0
 11
199.8401657893262
 21
245.6367704515287
 31
0.0
  0
LINE
  5
555
330
37
100
AcDbEntity
  8
Sichtbare Kanten(TC_020513_DIN)
100
AcDbLine
 10
203.8401657893261
 20
245.6367704515287
 30
0.0
 11
204.3401657893262
 21
245.6367704515287
 31
0.0
  0
LINE
  5
556
330
37
100
AcDbEntity
  8
Sichtbare Kanten(TC_020513_DIN)
100
AcDbLine
 10
100.3401657893261
 20
203.6367704515287
 30
0.0
 11
99.59016578932619
 21
203.6367704515287
 31
0.0
  0
LINE
  5
557
330
37
100
AcDbEntity
  8
Sichtbare Kanten(TC_020513_DIN)
100
AcDbLine
 10
238.5901657893262
 20
203.6367704515287
 30
0.0
 11
237.8401657893263
 21
203.6367704515287
 31
0.0
  0
LINE
  5
558
330
37
100
AcDbEntity
  8
Gewinde(TC_020513_DIN)
100
AcDbLine
 10
228.3401657893262
 20
295.2357704515287
 30
0.0
 11
228.8401657893262
 21
295.2357704515287
 31
0.0
  0
LINE
  5
559
330
37
100
AcDbEntity
  8
Gewinde(TC_020513_DIN)
100
AcDbLine
 10
228.8401657893262
 20
300.0377704515287
 30
0.0
 11
228.3401657893262
 21
300.0377704515287
 31
0.0
  0
LINE
  5
55A
330
37
100
AcDbEntity
  8
Sichtbare Kanten(TC_020513_DIN)
100
AcDbLine
 10
228.3401657893262
 20
300.6367704515287
 30
0.0
 11
228.3401657893262
 21
294.6367704515287
 31
0.0
  0
LINE
  5
55B
330
37
100
AcDbEntity
  8
Sichtbare Kanten(TC_020513_DIN)
100
AcDbLine
 10
307.3716481753865
 20
297.2367735032865
 30
0.0
 11
306.8611606189289
 21
297.2367735032865
 31
0.0
  0
LINE
  5
55C
330
37
100
AcDbEntity
  8
Sichtbare Kanten(TC_020513_DIN)
100
AcDbLine
 10
303.4538158008136
 20
297.2367735032865
 30
0.0
 11
302.9433282443562
 21
297.2367735032865
 31
0.0
  0
ARC
  5
55D
330
37
100
AcDbEntity
  8
Sichtbare Kanten(TC_020513_DIN)
100
AcDbCircle
 10
305.1574891635457
 20
297.6367704515287
 30
0.0
 40
2.25
100
AcDbArc
 50
190.2403483211861
 51
349.759651678813
  0
LINE
  5
55E
330
37
100
AcDbEntity
  8
Sichtbare Kanten(TC_020513_DIN)
100
AcDbLine
 10
306.8611616672856
 20
297.2367704515287
 30
0.0
 11
303.4538166598054
 21
297.2367704515287
 31
0.0
  0
LINE
  5
55F
330
37
100
AcDbEntity
  8
Sichtbare Kanten(TC_020513_DIN)
100
AcDbLine
 10
302.9433282443562
 20
298.0367727403471
 30
0.0
 11
303.4538158008136
 21
298.0367727403471
 31
0.0
  0
LINE
  5
560
330
37
100
AcDbEntity
  8
Sichtbare Kanten(TC_020513_DIN)
100
AcDbLine
 10
306.8611606189289
 20
298.0367727403471
 30
0.0
 11
307.3716481753865
 21
298.0367727403471
 31
0.0
  0
ARC
  5
561
330
37
100
AcDbEntity
  8
Sichtbare Kanten(TC_020513_DIN)
100
AcDbCircle
 10
305.1574891635457
 20
297.6367704515287
 30
0.0
 40
2.25
100
AcDbArc
 50
10.24034832118699
 51
169.7596516788139
  0
LINE
  5
562
330
37
100
AcDbEntity
  8
Sichtbare Kanten(TC_020513_DIN)
100
AcDbLine
 10
303.4538166598054
 20
298.0367704515287
 30
0.0
 11
306.8611616672856
 21
298.0367704515287
 31
0.0
  0
ARC
  5
563
330
37
100
AcDbEntity
  8
Sichtbare Kanten(TC_020513_DIN)
100
AcDbCircle
 10
303.6766987331256
 20
296.2837043916361
 30
0.0
 40
0.4999999999999811
100
AcDbArc
 50
155.5812916580356
 51
215.1033012659397
  0
ARC
  5
564
330
37
100
AcDbEntity
  8
Sichtbare Kanten(TC_020513_DIN)
100
AcDbCircle
 10
302.7563175745087
 20
295.6367704515287
 30
0.0
 40
0.6250000000000052
100
AcDbArc
 50
219.7918194995553
 51
35.10330126593651
  0
ARC
  5
565
330
37
100
AcDbEntity
  8
Sichtbare Kanten(TC_020513_DIN)
100
AcDbCircle
 10
306.6382795939663
 20
296.2837043916361
 30
0.0
 40
0.5000000000000203
100
AcDbArc
 50
324.8966987340626
 51
24.41870834196814
  0
ARC
  5
566
330
37
100
AcDbEntity
  8
Sichtbare Kanten(TC_020513_DIN)
100
AcDbCircle
 10
303.2908390322773
 20
298.354835411985
 30
0.0
 40
0.5000000000000224
100
AcDbArc
 50
158.9592107880615
 51
224.9897284703477
  0
ARC
  5
567
330
37
100
AcDbEntity
  8
Sichtbare Kanten(TC_020513_DIN)
100
AcDbCircle
 10
305.157489163546
 20
297.6367704515286
 30
0.0
 40
2.500000000000053
100
AcDbArc
 50
121.7127184976644
 51
158.9592107880756
  0
ARC
  5
568
330
37
100
AcDbEntity
  8
Sichtbare Kanten(TC_020513_DIN)
100
AcDbCircle
 10
304.1061681617747
 20
299.3381593404175
 30
0.0
 40
0.4999999999999996
100
AcDbArc
 50
55.6822008154413
 51
121.7127184975797
  0
ARC
  5
569
330
37
100
AcDbEntity
  8
Sichtbare Kanten(TC_020513_DIN)
100
AcDbCircle
 10
306.2088101653174
 20
299.3381593404175
 30
0.0
 40
0.5000000000000098
100
AcDbArc
 50
58.28728150242936
 51
124.317799184553
  0
ARC
  5
56A
330
37
100
AcDbEntity
  8
Sichtbare Kanten(TC_020513_DIN)
100
AcDbCircle
 10
305.1574891635461
 20
297.6367704515287
 30
0.0
 40
2.499999999999931
100
AcDbArc
 50
21.04078921192453
 51
58.28728150233859
  0
ARC
  5
56B
330
37
100
AcDbEntity
  8
Sichtbare Kanten(TC_020513_DIN)
100
AcDbCircle
 10
307.0241392948144
 20
298.3548354119851
 30
0.0
 40
0.499999999999985
100
AcDbArc
 50
315.0102715296984
 51
21.04078921192328
  0
ARC
  5
56C
330
37
100
AcDbEntity
  8
Sichtbare Kanten(TC_020513_DIN)
100
AcDbCircle
 10
307.5586607525833
 20
295.6367704515287
 30
0.0
 40
0.6249999999999992
100
AcDbArc
 50
144.896698734059
 51
320.2081805004472
  0
ARC
  5
56D
330
37
100
AcDbEntity
  8
Sichtbare Kanten(TC_020513_DIN)
100
AcDbCircle
 10
305.157489163546
 20
297.6367704515287
 30
0.0
 40
3.749999999999992
100
AcDbArc
 50
320.2081805004429
 51
219.7918194995571
  0
ARC
  5
56E
330
37
100
AcDbEntity
  8
Sichtbare Kanten(TC_020513_DIN)
100
AcDbCircle
 10
305.1574891635457
 20
297.6367704515287
 30
0.0
 40
2.250000000000005
100
AcDbArc
 50
169.759651678814
 51
190.2403483211859
  0
ARC
  5
56F
330
37
100
AcDbEntity
  8
Sichtbare Kanten(TC_020513_DIN)
100
AcDbCircle
 10
305.1574891635457
 20
297.6367704515287
 30
0.0
 40
2.250000000000005
100
AcDbArc
 50
349.7596516788141
 51
10.24034832118591
  0
CIRCLE
  5
570
330
37
100
AcDbEntity
  8
Sichtbare Kanten(TC_020513_DIN)
100
AcDbCircle
 10
305.1574891635461
 20
297.6367704515287
 30
0.0
 40
4.000000000000003
  0
LINE
  5
571
330
37
100
AcDbEntity
  8
Sichtbare Kanten(TC_020513_DIN)
100
AcDbLine
 10
309.0760552940262
 20
240.5367704515287
 30
0.0
 11
307.6827194933843
 21
245.7367704515287
 31
0.0
  0
LINE
  5
572
330
37
100
AcDbEntity
  8
Sichtbare Kanten(TC_020513_DIN)
100
AcDbLine
 10
302.3673194045169
 20
246.2555971199569
 30
0.0
 11
304.1357840745622
 21
239.6555971199569
 31
0.0
  0
ARC
  5
573
330
37
100
AcDbEntity
  8
Sichtbare Kanten(TC_020513_DIN)
100
AcDbCircle
 10
303.043467482918
 20
246.4367704515287
 30
0.0
 40
0.7000000000000155
100
AcDbArc
 50
194.9999999999984
 51
269.9999999999971
  0
LINE
  5
574
330
37
100
AcDbEntity
  8
Sichtbare Kanten(TC_020513_DIN)
100
AcDbLine
 10
303.043467482918
 20
245.7367704515287
 30
0.0
 11
310.1664972781709
 21
245.7367704515287
 31
0.0
  0
LINE
  5
575
330
37
100
AcDbEntity
  8
Sichtbare Kanten(TC_020513_DIN)
100
AcDbLine
 10
310.157489163558
 20
240.5367704515287
 30
0.0
 11
304.8119321529634
 21
240.5367704515287
 31
0.0
  0
ARC
  5
576
330
37
100
AcDbEntity
  8
Sichtbare Kanten(TC_020513_DIN)
100
AcDbCircle
 10
304.8119321529634
 20
239.8367704515286
 30
0.0
 40
0.699999999999994
100
AcDbArc
 50
90.0
 51
194.9999999999992
  0
LINE
  5
577
330
37
100
AcDbEntity
  8
Sichtbare Kanten(TC_020513_DIN)
100
AcDbLine
 10
304.135784074561
 20
239.6555971199569
 30
0.0
 11
304.1455547771891
 21
239.6191323613236
 31
0.0
  0
LINE
  5
578
330
37
100
AcDbEntity
  8
Sichtbare Kanten(TC_020513_DIN)
100
AcDbLine
 10
300.7914637597736
 20
252.1367704515286
 30
0.0
 11
302.3673194045157
 21
246.2555971199569
 31
0.0
  0
ARC
  5
579
330
37
100
AcDbEntity
  8
Sichtbare Kanten(TC_020513_DIN)
100
AcDbCircle
 10
306.0774064297672
 20
240.1367704515287
 30
0.0
 40
1.999999999999998
100
AcDbArc
 50
194.9999999999997
 51
270.0
  0
LINE
  5
57A
330
37
100
AcDbEntity
  8
Sichtbare Kanten(TC_020513_DIN)
100
AcDbLine
 10
306.0774064297671
 20
238.1367704515287
 30
0.0
 11
310.157489163558
 21
238.1367704515287
 31
0.0
  0
LINE
  5
57B
330
37
100
AcDbEntity
  8
Sichtbare Kanten(TC_020513_DIN)
100
AcDbLine
 10
314.657489163558
 20
250.4117076370618
 30
0.0
 11
314.657489163558
 21
252.1367704515286
 31
0.0
  0
LINE
  5
57C
330
37
100
AcDbEntity
  8
Sichtbare Kanten(TC_020513_DIN)
100
AcDbLine
 10
314.657489163553
 20
252.1367704515286
 30
0.0
 11
299.657489163553
 21
252.1367704515286
 31
0.0
  0
LINE
  5
57D
330
37
100
AcDbEntity
  8
Sichtbare Kanten(TC_020513_DIN)
100
AcDbLine
 10
314.657489163553
 20
343.1367704515287
 30
0.0
 11
314.6574891635482
 21
327.1367704515286
 31
0.0
  0
LINE
  5
57E
330
37
100
AcDbEntity
  8
Sichtbare Kanten(TC_020513_DIN)
100
AcDbLine
 10
314.6574891635482
 20
268.1367704515287
 30
0.0
 11
314.6574891635482
 21
327.1367704515286
 31
0.0
  0
LINE
  5
57F
330
37
100
AcDbEntity
  8
Sichtbare Kanten(TC_020513_DIN)
100
AcDbLine
 10
314.6574891635482
 20
268.1367704515286
 30
0.0
 11
314.657489163553
 21
252.1367704515286
 31
0.0
  0
LINE
  5
580
330
37
100
AcDbEntity
  8
Sichtbare Kanten(TC_020513_DIN)
100
AcDbLine
 10
314.657489163553
 20
343.1367704515287
 30
0.0
 11
299.657489163553
 21
343.1367704515287
 31
0.0
  0
ARC
  5
581
330
37
100
AcDbEntity
  8
Sichtbare Kanten(TC_020513_DIN)
100
AcDbCircle
 10
299.657489163553
 20
256.1367704515287
 30
0.0
 40
4.000000000000012
100
AcDbArc
 50
180.0
 51
270.0
  0
ARC
  5
582
330
37
100
AcDbEntity
  8
Sichtbare Kanten(TC_020513_DIN)
100
AcDbCircle
 10
299.657489163553
 20
339.1367704515287
 30
0.0
 40
4.000000000000021
100
AcDbArc
 50
90.00000000000101
 51
180.0
  0
LINE
  5
583
330
37
100
AcDbEntity
  8
Sichtbare Kanten(TC_020513_DIN)
100
AcDbLine
 10
295.657489163553
 20
256.1367704515286
 30
0.0
 11
295.6574891635494
 21
268.1367704515287
 31
0.0
  0
LINE
  5
584
330
37
100
AcDbEntity
  8
Sichtbare Kanten(TC_020513_DIN)
100
AcDbLine
 10
295.6574891635494
 20
327.1367704515286
 30
0.0
 11
295.657489163553
 21
339.1367704515287
 31
0.0
  0
LINE
  5
585
330
37
100
AcDbEntity
  8
Sichtbare Kanten(TC_020513_DIN)
100
AcDbLine
 10
295.6574891635494
 20
327.1367704515286
 30
0.0
 11
295.6574891635494
 21
268.1367704515287
 31
0.0
  0
ARC
  5
586
330
37
100
AcDbEntity
  8
Sichtbare Kanten(TC_020513_DIN)
100
AcDbCircle
 10
445.8687140120184
 20
213.4387907615717
 30
0.0
 40
8.000000000000117
100
AcDbArc
 50
60.00000000000002
 51
91.39648487671111
  0
LINE
  5
587
330
37
100
AcDbEntity
  8
Sichtbare Kanten(TC_020513_DIN)
100
AcDbLine
 10
455.9643835951681
 20
216.8476575171248
 30
0.0
 11
461.1605360178765
 21
213.8476575171248
 31
0.0
  0
LINE
  5
588
330
37
100
AcDbEntity
  8
Sichtbare Kanten(TC_020513_DIN)
100
AcDbLine
 10
455.9643835951682
 20
216.8476575171247
 30
0.0
 11
449.8687140120185
 21
220.3669939918473
 31
0.0
  0
LINE
  5
589
330
37
100
AcDbEntity
  8
Sichtbare Kanten(TC_020513_DIN)
100
AcDbLine
 10
461.8605360178766
 20
215.0600930824229
 30
0.0
 11
461.1605360178766
 21
213.8476575171247
 31
0.0
  0
LINE
  5
58A
330
37
100
AcDbEntity
  8
Sichtbare Kanten(TC_020513_DIN)
100
AcDbLine
 10
456.6643835951682
 20
218.060093082423
 30
0.0
 11
450.5687140120184
 21
221.5794295571455
 31
0.0
  0
LINE
  5
58B
330
37
100
AcDbEntity
  8
Sichtbare Kanten(TC_020513_DIN)
100
AcDbLine
 10
456.6643835951682
 20
218.060093082423
 30
0.0
 11
461.8605360178766
 21
215.0600930824229
 31
0.0
  0
ARC
  5
58C
330
37
100
AcDbEntity
  8
Sichtbare Kanten(TC_020513_DIN)
100
AcDbCircle
 10
445.8687140120184
 20
213.4387907615717
 30
0.0
 40
9.400000000000032
100
AcDbArc
 50
60.0000000000001
 51
91.39648487671111
  0
LINE
  5
58D
330
37
100
AcDbEntity
  8
Sichtbare Kanten(TC_020513_DIN)
100
AcDbLine
 10
441.168714012018
 20
221.5794295571456
 30
0.0
 11
437.9655692775063
 21
219.730093082423
 31
0.0
  0
LINE
  5
58E
330
37
100
AcDbEntity
  8
Sichtbare Kanten(TC_020513_DIN)
100
AcDbLine
 10
441.868714012018
 20
220.3669939918473
 30
0.0
 11
438.6655692775064
 21
218.5176575171248
 31
0.0
  0
LINE
  5
58F
330
37
100
AcDbEntity
  8
Sichtbare Kanten(TC_020513_DIN)
100
AcDbLine
 10
433.9655692774951
 20
226.6582963126985
 30
0.0
 11
432.3490645654112
 21
229.4581646047021
 31
0.0
  0
LINE
  5
590
330
37
100
AcDbEntity
  8
Sichtbare Kanten(TC_020513_DIN)
100
AcDbLine
 10
432.3490645654112
 20
229.4581646047021
 30
0.0
 11
382.6574891635474
 21
266.5357499370951
 31
0.0
  0
ARC
  5
591
330
37
100
AcDbEntity
  8
Sichtbare Kanten(TC_020513_DIN)
100
AcDbCircle
 10
381.6574891635474
 20
261.6367704515287
 30
0.0
 40
4.999999999999998
100
AcDbArc
 50
78.46304096718434
 51
247.7908933488856
  0
ARC
  5
592
330
37
100
AcDbEntity
  8
Sichtbare Kanten(TC_020513_DIN)
100
AcDbCircle
 10
374.664712257188
 20
244.5092758554738
 30
0.0
 40
13.50000000000001
100
AcDbArc
 50
1.808561501135333
 51
67.79089334888567
  0
ARC
  5
593
330
37
100
AcDbEntity
  8
Sichtbare Kanten(TC_020513_DIN)
100
AcDbCircle
 10
389.1574891635475
 20
244.9668974704509
 30
0.0
 40
1.000000000000014
100
AcDbArc
 50
181.8085615011351
 51
240.0000000000023
  0
ARC
  5
594
330
37
100
AcDbEntity
  8
Sichtbare Kanten(TC_020513_DIN)
100
AcDbCircle
 10
386.6574891635474
 20
240.6367704515286
 30
0.0
 40
4.000000000000001
100
AcDbArc
 50
224.2671179968893
 51
60.00000000000067
  0
LINE
  5
595
330
37
100
AcDbEntity
  8
Sichtbare Kanten(TC_020513_DIN)
100
AcDbLine
 10
383.7931154203148
 20
237.8447527117785
 30
0.0
 11
372.3184235216288
 21
249.6168148009041
 31
0.0
  0
ARC
  5
596
330
37
100
AcDbEntity
  8
Sichtbare Kanten(TC_020513_DIN)
100
AcDbCircle
 10
365.1574891635474
 20
242.6367704515286
 30
0.0
 40
10.0
100
AcDbArc
 50
44.26711799688945
 51
126.8698976458445
  0
LINE
  5
597
330
37
100
AcDbEntity
  8
Sichtbare Kanten(TC_020513_DIN)
100
AcDbLine
 10
359.1574891635474
 20
250.6367704515287
 30
0.0
 11
359.1574891635474
 21
225.6367704515287
 31
0.0
  0
ARC
  5
598
330
37
100
AcDbEntity
  8
Sichtbare Kanten(TC_020513_DIN)
100
AcDbCircle
 10
364.1574891635475
 20
225.6367704515287
 30
0.0
 40
5.0
100
AcDbArc
 50
180.0
 51
270.0
  0
LINE
  5
599
330
37
100
AcDbEntity
  8
Sichtbare Kanten(TC_020513_DIN)
100
AcDbLine
 10
364.1574891635475
 20
220.6367704515287
 30
0.0
 11
416.6574891635474
 21
220.6367704515287
 31
0.0
  0
LINE
  5
59A
330
37
100
AcDbEntity
  8
Sichtbare Kanten(TC_020513_DIN)
100
AcDbLine
 10
416.6574891635474
 20
220.6367704515287
 30
0.0
 11
418.3771120093752
 21
217.6582963126985
 31
0.0
  0
POLYLINE
  5
59B
330
37
100
AcDbEntity
  8
Sichtbare Kanten(TC_020513_DIN)
100
AcDb2dPolyline
 66
     1
 10
0.0
 20
0.0
 30
0.0
 70
   128
  0
VERTEX
  5
59C
330
59B
100
AcDbEntity
  8
Sichtbare Kanten(TC_020513_DIN)
100
AcDbVertex
100
AcDb2dVertex
 10
445.6737454959584
 20
221.4364142541715
 30
0.0
  0
VERTEX
  5
59D
330
59B
100
AcDbEntity
  8
Sichtbare Kanten(TC_020513_DIN)
100
AcDbVertex
100
AcDb2dVertex
 10
445.4831775256825
 20
221.429471505148
 30
0.0
  0
VERTEX
  5
59F
330
59B
100
AcDbEntity
  8
Sichtbare Kanten(TC_020513_DIN)
100
AcDbVertex
100
AcDb2dVertex
 10
445.2934106418324
 20
221.4180023794003
 30
0.0
  0
VERTEX
  5
5A0
330
59B
100
AcDbEntity
  8
Sichtbare Kanten(TC_020513_DIN)
100
AcDbVertex
100
AcDb2dVertex
 10
445.104583127184
 20
221.4020784025021
 30
0.0
  0
VERTEX
  5
5A1
330
59B
100
AcDbEntity
  8
Sichtbare Kanten(TC_020513_DIN)
100
AcDbVertex
100
AcDb2dVertex
 10
444.9168284961415
 20
221.3817746763059
 30
0.0
  0
VERTEX
  5
5A2
330
59B
100
AcDbEntity
  8
Sichtbare Kanten(TC_020513_DIN)
100
AcDbVertex
100
AcDb2dVertex
 10
444.7302802631091
 20
221.357165110571
 30
0.0
  0
VERTEX
  5
5A3
330
59B
100
AcDbEntity
  8
Sichtbare Kanten(TC_020513_DIN)
100
AcDbVertex
100
AcDb2dVertex
 10
444.5450719424915
 20
221.3283212308713
 30
0.0
  0
VERTEX
  5
5A4
330
59B
100
AcDbEntity
  8
Sichtbare Kanten(TC_020513_DIN)
100
AcDbVertex
100
AcDb2dVertex
 10
444.3613418170643
 20
221.2953181390592
 30
0.0
  0
VERTEX
  5
5A5
330
59B
100
AcDbEntity
  8
Sichtbare Kanten(TC_020513_DIN)
100
AcDbVertex
100
AcDb2dVertex
 10
444.1792138644886
 20
221.2582285528012
 30
0.0
  0
VERTEX
  5
5A6
330
59B
100
AcDbEntity
  8
Sichtbare Kanten(TC_020513_DIN)
100
AcDbVertex
100
AcDb2dVertex
 10
443.9988311359119
 20
221.2171275739499
 30
0.0
  0
VERTEX
  5
5A7
330
59B
100
AcDbEntity
  8
Sichtbare Kanten(TC_020513_DIN)
100
AcDbVertex
100
AcDb2dVertex
 10
443.8203223773669
 20
221.1720867280789
 30
0.0
  0
VERTEX
  5
5A8
330
59B
100
AcDbEntity
  8
Sichtbare Kanten(TC_020513_DIN)
100
AcDbVertex
100
AcDb2dVertex
 10
443.6438449451159
 20
221.1231882695981
 30
0.0
  0
VERTEX
  5
5A9
330
59B
100
AcDbEntity
  8
Sichtbare Kanten(TC_020513_DIN)
100
AcDbVertex
100
AcDb2dVertex
 10
443.4700234958362
 20
221.070711148245
 30
0.0
  0
VERTEX
  5
5AA
330
59B
100
AcDbEntity
  8
Sichtbare Kanten(TC_020513_DIN)
100
AcDbVertex
100
AcDb2dVertex
 10
443.2991441318224
 20
221.0148818616696
 30
0.0
  0
VERTEX
  5
5AB
330
59B
100
AcDbEntity
  8
Sichtbare Kanten(TC_020513_DIN)
100
AcDbVertex
100
AcDb2dVertex
 10
443.1312783786487
 20
220.9558577661344
 30
0.0
  0
VERTEX
  5
5AC
330
59B
100
AcDbEntity
  8
Sichtbare Kanten(TC_020513_DIN)
100
AcDbVertex
100
AcDb2dVertex
 10
442.9665120670031
 20
220.8937974099942
 30
0.0
  0
VERTEX
  5
5AD
330
59B
100
AcDbEntity
  8
Sichtbare Kanten(TC_020513_DIN)
100
AcDbVertex
100
AcDb2dVertex
 10
442.8049071857165
 20
220.8288569574186
 30
0.0
  0
VERTEX
  5
5AE
330
59B
100
AcDbEntity
  8
Sichtbare Kanten(TC_020513_DIN)
100
AcDbVertex
100
AcDb2dVertex
 10
442.64779411046
 20
220.7617647771665
 30
0.0
  0
VERTEX
  5
5AF
330
59B
100
AcDbEntity
  8
Sichtbare Kanten(TC_020513_DIN)
100
AcDbVertex
100
AcDb2dVertex
 10
442.5013240405747
 20
220.6956763391324
 30
0.0
  0
VERTEX
  5
5B0
330
59B
100
AcDbEntity
  8
Sichtbare Kanten(TC_020513_DIN)
100
AcDbVertex
100
AcDb2dVertex
 10
442.3664172717759
 20
220.6316466455289
 30
0.0
  0
VERTEX
  5
5B1
330
59B
100
AcDbEntity
  8
Sichtbare Kanten(TC_020513_DIN)
100
AcDbVertex
100
AcDb2dVertex
 10
442.2431644031235
 20
220.5703778390714
 30
0.0
  0
VERTEX
  5
5B2
330
59B
100
AcDbEntity
  8
Sichtbare Kanten(TC_020513_DIN)
100
AcDbVertex
100
AcDb2dVertex
 10
442.1316655704209
 20
220.512575638754
 30
0.0
  0
VERTEX
  5
5B3
330
59B
100
AcDbEntity
  8
Sichtbare Kanten(TC_020513_DIN)
100
AcDbVertex
100
AcDb2dVertex
 10
442.0320256778428
 20
220.4589421872922
 30
0.0
  0
VERTEX
  5
5B4
330
59B
100
AcDbEntity
  8
Sichtbare Kanten(TC_020513_DIN)
100
AcDbVertex
100
AcDb2dVertex
 10
441.9443400928208
 20
220.4101808194943
 30
0.0
  0
VERTEX
  5
5B5
330
59B
100
AcDbEntity
  8
Sichtbare Kanten(TC_020513_DIN)
100
AcDbVertex
100
AcDb2dVertex
 10
441.8687137195298
 20
220.3669936780759
 30
0.0
  0
SEQEND
  5
59E
330
59B
100
AcDbEntity
  8
Sichtbare Kanten(TC_020513_DIN)
  0
POLYLINE
  5
5B6
330
37
100
AcDbEntity
  8
Sichtbare Kanten(TC_020513_DIN)
100
AcDb2dPolyline
 66
     1
 10
0.0
 20
0.0
 30
0.0
 70
   128
  0
VERTEX
  5
5B7
330
5B6
100
AcDbEntity
  8
Sichtbare Kanten(TC_020513_DIN)
100
AcDbVertex
100
AcDb2dVertex
 10
441.1687120029159
 20
221.5794296388455
 30
0.0
  0
VERTEX
  5
5B8
330
5B6
100
AcDbEntity
  8
Sichtbare Kanten(TC_020513_DIN)
100
AcDbVertex
100
AcDb2dVertex
 10
441.2610086032578
 20
221.6320963029691
 30
0.0
  0
VERTEX
  5
5BA
330
5B6
100
AcDbEntity
  8
Sichtbare Kanten(TC_020513_DIN)
100
AcDbVertex
100
AcDb2dVertex
 10
441.3676627704331
 20
221.6912920598813
 30
0.0
  0
VERTEX
  5
5BB
330
5B6
100
AcDbEntity
  8
Sichtbare Kanten(TC_020513_DIN)
100
AcDbVertex
100
AcDb2dVertex
 10
441.4885314532944
 20
221.7561609868833
 30
0.0
  0
VERTEX
  5
5BC
330
5B6
100
AcDbEntity
  8
Sichtbare Kanten(TC_020513_DIN)
100
AcDbVertex
100
AcDb2dVertex
 10
441.623476369066
 20
221.8258435849973
 30
0.0
  0
VERTEX
  5
5BD
330
5B6
100
AcDbEntity
  8
Sichtbare Kanten(TC_020513_DIN)
100
AcDbVertex
100
AcDb2dVertex
 10
441.7723592349717
 20
221.8994827394315
 30
0.0
  0
VERTEX
  5
5BE
330
5B6
100
AcDbEntity
  8
Sichtbare Kanten(TC_020513_DIN)
100
AcDbVertex
100
AcDb2dVertex
 10
441.9350369998643
 20
221.9762201433011
 30
0.0
  0
VERTEX
  5
5BF
330
5B6
100
AcDbEntity
  8
Sichtbare Kanten(TC_020513_DIN)
100
AcDbVertex
100
AcDb2dVertex
 10
442.1113761493395
 20
222.0551998739072
 30
0.0
  0
VERTEX
  5
5C0
330
5B6
100
AcDbEntity
  8
Sichtbare Kanten(TC_020513_DIN)
100
AcDbVertex
100
AcDb2dVertex
 10
442.2986634799669
 20
222.1344573621579
 30
0.0
  0
VERTEX
  5
5C1
330
5B6
100
AcDbEntity
  8
Sichtbare Kanten(TC_020513_DIN)
100
AcDbVertex
100
AcDb2dVertex
 10
442.489617688341
 20
222.2104008321591
 30
0.0
  0
VERTEX
  5
5C2
330
5B6
100
AcDbEntity
  8
Sichtbare Kanten(TC_020513_DIN)
100
AcDbVertex
100
AcDb2dVertex
 10
442.6836999484729
 20
222.2826941137143
 30
0.0
  0
VERTEX
  5
5C3
330
5B6
100
AcDbEntity
  8
Sichtbare Kanten(TC_020513_DIN)
100
AcDbVertex
100
AcDb2dVertex
 10
442.8807910510729
 20
222.3511977319547
 30
0.0
  0
VERTEX
  5
5C4
330
5B6
100
AcDbEntity
  8
Sichtbare Kanten(TC_020513_DIN)
100
AcDbVertex
100
AcDb2dVertex
 10
443.0807860919665
 20
222.4157698278256
 30
0.0
  0
VERTEX
  5
5C5
330
5B6
100
AcDbEntity
  8
Sichtbare Kanten(TC_020513_DIN)
100
AcDbVertex
100
AcDb2dVertex
 10
443.2835706302356
 20
222.4762697343656
 30
0.0
  0
VERTEX
  5
5C6
330
5B6
100
AcDbEntity
  8
Sichtbare Kanten(TC_020513_DIN)
100
AcDbVertex
100
AcDb2dVertex
 10
443.4890349933338
 20
222.5325567846128
 30
0.0
  0
VERTEX
  5
5C7
330
5B6
100
AcDbEntity
  8
Sichtbare Kanten(TC_020513_DIN)
100
AcDbVertex
100
AcDb2dVertex
 10
443.697064740343
 20
222.5844903116056
 30
0.0
  0
VERTEX
  5
5C8
330
5B6
100
AcDbEntity
  8
Sichtbare Kanten(TC_020513_DIN)
100
AcDbVertex
100
AcDb2dVertex
 10
443.907516820116
 20
222.6319224958249
 30
0.0
  0
VERTEX
  5
5C9
330
5B6
100
AcDbEntity
  8
Sichtbare Kanten(TC_020513_DIN)
100
AcDbVertex
100
AcDb2dVertex
 10
444.1197808810901
 20
222.6746339921781
 30
0.0
  0
VERTEX
  5
5CA
330
5B6
100
AcDbEntity
  8
Sichtbare Kanten(TC_020513_DIN)
100
AcDbVertex
100
AcDb2dVertex
 10
444.3335612842274
 20
222.7125353936978
 30
0.0
  0
VERTEX
  5
5CB
330
5B6
100
AcDbEntity
  8
Sichtbare Kanten(TC_020513_DIN)
100
AcDbVertex
100
AcDb2dVertex
 10
444.548705441637
 20
222.7455742482968
 30
0.0
  0
VERTEX
  5
5CC
330
5B6
100
AcDbEntity
  8
Sichtbare Kanten(TC_020513_DIN)
100
AcDbVertex
100
AcDb2dVertex
 10
444.7650607654286
 20
222.7736981038876
 30
0.0
  0
VERTEX
  5
5CD
330
5B6
100
AcDbEntity
  8
Sichtbare Kanten(TC_020513_DIN)
100
AcDbVertex
100
AcDb2dVertex
 10
444.9824842044545
 20
222.7968545083829
 30
0.0
  0
VERTEX
  5
5CE
330
5B6
100
AcDbEntity
  8
Sichtbare Kanten(TC_020513_DIN)
100
AcDbVertex
100
AcDb2dVertex
 10
445.2008184024525
 20
222.814992201788
 30
0.0
  0
VERTEX
  5
5CF
330
5B6
100
AcDbEntity
  8
Sichtbare Kanten(TC_020513_DIN)
100
AcDbVertex
100
AcDb2dVertex
 10
445.4199203082753
 20
222.8280575399228
 30
0.0
  0
VERTEX
  5
5D0
330
5B6
100
AcDbEntity
  8
Sichtbare Kanten(TC_020513_DIN)
100
AcDbVertex
100
AcDb2dVertex
 10
445.6396277972889
 20
222.8359992627927
 30
0.0
  0
SEQEND
  5
5B9
330
5B6
100
AcDbEntity
  8
Sichtbare Kanten(TC_020513_DIN)
  0
LINE
  5
5D1
330
37
100
AcDbEntity
  8
Sichtbare Kanten(TC_020513_DIN)
100
AcDbLine
 10
441.5673095039218
 20
220.8890419135004
 30
0.0
 11
441.168714012018
 21
221.5794295571456
 31
0.0
  0
LINE
  5
5D2
330
37
100
AcDbEntity
  8
Sichtbare Kanten(TC_020513_DIN)
100
AcDbLine
 10
441.868714012018
 20
220.3669939918473
 30
0.0
 11
441.5673095039218
 21
220.8890419135004
 31
0.0
  0
LINE
  5
5D3
330
37
100
AcDbEntity
  8
Sichtbare Kanten(TC_020513_DIN)
100
AcDbLine
 10
423.077112009378
 20
209.5176575171248
 30
0.0
 11
418.3771120093752
 21
217.6582963126985
 31
0.0
  0
LINE
  5
5D4
330
37
100
AcDbEntity
  8
Sichtbare Kanten(TC_020513_DIN)
100
AcDbLine
 10
438.6655692774979
 20
218.5176575171248
 30
0.0
 11
423.077112009378
 21
209.5176575171248
 31
0.0
  0
LINE
  5
5D5
330
37
100
AcDbEntity
  8
Sichtbare Kanten(TC_020513_DIN)
100
AcDbLine
 10
433.9655692774952
 20
226.6582963126985
 30
0.0
 11
438.665569277498
 21
218.5176575171249
 31
0.0
  0
LINE
  5
5D6
330
37
100
AcDbEntity
  8
Sichtbare Kanten(TC_020513_DIN)
100
AcDbLine
 10
426.6574891635476
 20
151.1367704515286
 30
0.0
 11
397.1574891635477
 21
151.1367704515286
 31
0.0
  0
ARC
  5
5D7
330
37
100
AcDbEntity
  8
Sichtbare Kanten(TC_020513_DIN)
100
AcDbCircle
 10
397.1574891635477
 20
152.1367704515286
 30
0.0
 40
0.9999999999999964
100
AcDbArc
 50
180.0
 51
270.0
  0
ARC
  5
5D8
330
37
100
AcDbEntity
  8
Sichtbare Kanten(TC_020513_DIN)
100
AcDbCircle
 10
428.1574891635482
 20
150.1367704515286
 30
0.0
 40
0.9999999999999964
100
AcDbArc
 50
0.0
 51
90.0
  0
LINE
  5
5D9
330
37
100
AcDbEntity
  8
Sichtbare Kanten(TC_020513_DIN)
100
AcDbLine
 10
426.6574891635476
 20
151.1367704515286
 30
0.0
 11
428.157489163548
 21
151.1367704515286
 31
0.0
  0
LINE
  5
5DA
330
37
100
AcDbEntity
  8
Sichtbare Kanten(TC_020513_DIN)
100
AcDbLine
 10
396.1574891635477
 20
152.1367704515286
 30
0.0
 11
396.1574891635477
 21
176.6367704515286
 31
0.0
  0
ARC
  5
5DB
330
37
100
AcDbEntity
  8
Sichtbare Kanten(TC_020513_DIN)
100
AcDbCircle
 10
369.1574891635477
 20
176.6367704515286
 30
0.0
 40
27.0
100
AcDbArc
 50
0.0
 51
180.0
  0
LINE
  5
5DC
330
37
100
AcDbEntity
  8
Sichtbare Kanten(TC_020513_DIN)
100
AcDbLine
 10
342.1574891635477
 20
176.6367704515286
 30
0.0
 11
342.1574891635477
 21
152.1367704515286
 31
0.0
  0
ARC
  5
5DD
330
37
100
AcDbEntity
  8
Sichtbare Kanten(TC_020513_DIN)
100
AcDbCircle
 10
341.1574891635477
 20
152.1367704515286
 30
0.0
 40
0.999999999999992
100
AcDbArc
 50
270.0
 51
0.0
  0
LINE
  5
5DE
330
37
100
AcDbEntity
  8
Sichtbare Kanten(TC_020513_DIN)
100
AcDbLine
 10
341.1574891635477
 20
151.1367704515286
 30
0.0
 11
311.6574891635477
 21
151.1367704515286
 31
0.0
  0
ARC
  5
5DF
330
37
100
AcDbEntity
  8
Sichtbare Kanten(TC_020513_DIN)
100
AcDbCircle
 10
310.1574891635482
 20
150.1367704515286
 30
0.0
 40
0.9999999999999964
100
AcDbArc
 50
90.0
 51
180.0
  0
LINE
  5
5E0
330
37
100
AcDbEntity
  8
Sichtbare Kanten(TC_020513_DIN)
100
AcDbLine
 10
310.1574891635481
 20
151.1367704515286
 30
0.0
 11
311.6574891635476
 21
151.1367704515286
 31
0.0
  0
ARC
  5
5E1
330
37
100
AcDbEntity
  8
Sichtbare Kanten(TC_020513_DIN)
100
AcDbCircle
 10
415.6574891635529
 20
152.1367704515286
 30
0.0
 40
0.9999999999999964
100
AcDbArc
 50
180.0
 51
270.0
  0
ARC
  5
5E2
330
37
100
AcDbEntity
  8
Sichtbare Kanten(TC_020513_DIN)
100
AcDbCircle
 10
322.657489163553
 20
152.1367704515286
 30
0.0
 40
0.9999999999999964
100
AcDbArc
 50
270.0
 51
0.0
  0
LINE
  5
5E3
330
37
100
AcDbEntity
  8
Sichtbare Kanten(TC_020513_DIN)
100
AcDbLine
 10
429.1574891635481
 20
144.1367704515286
 30
0.0
 11
429.1574891635481
 21
150.1367704515286
 31
0.0
  0
LINE
  5
5E4
330
37
100
AcDbEntity
  8
Sichtbare Kanten(TC_020513_DIN)
100
AcDbLine
 10
429.1574891635481
 20
144.1367704515286
 30
0.0
 11
426.6574891635474
 21
144.1367704515286
 31
0.0
  0
LINE
  5
5E5
330
37
100
AcDbEntity
  8
Sichtbare Kanten(TC_020513_DIN)
100
AcDbLine
 10
426.6574891635474
 20
144.1367704515286
 30
0.0
 11
311.6574891635474
 21
144.1367704515286
 31
0.0
  0
LINE
  5
5E6
330
37
100
AcDbEntity
  8
Sichtbare Kanten(TC_020513_DIN)
100
AcDbLine
 10
309.1574891635481
 20
144.1367704515286
 30
0.0
 11
309.1574891635481
 21
150.1367704515286
 31
0.0
  0
LINE
  5
5E7
330
37
100
AcDbEntity
  8
Sichtbare Kanten(TC_020513_DIN)
100
AcDbLine
 10
309.1574891635481
 20
144.1367704515286
 30
0.0
 11
311.6574891635474
 21
144.1367704515286
 31
0.0
  0
LINE
  5
5E8
330
37
100
AcDbEntity
  8
Sichtbare Kanten(TC_020513_DIN)
100
AcDbLine
 10
414.657489163553
 20
152.1367704515286
 30
0.0
 11
414.657489163553
 21
220.6367704515287
 31
0.0
  0
LINE
  5
5E9
330
37
100
AcDbEntity
  8
Sichtbare Kanten(TC_020513_DIN)
100
AcDbLine
 10
323.657489163553
 20
152.1367704515286
 30
0.0
 11
323.657489163553
 21
237.6367704515287
 31
0.0
  0
LINE
  5
5EA
330
37
100
AcDbEntity
  8
Sichtbare Kanten(TC_020513_DIN)
100
AcDbLine
 10
370.1574891635465
 20
183.6367704515287
 30
0.0
 11
370.1574891635465
 21
169.6367704515286
 31
0.0
  0
LINE
  5
5EB
330
37
100
AcDbEntity
  8
Sichtbare Kanten(TC_020513_DIN)
100
AcDbLine
 10
368.1574891635465
 20
169.6367704515286
 30
0.0
 11
368.1574891635465
 21
183.6367704515287
 31
0.0
  0
LINE
  5
5EC
330
37
100
AcDbEntity
  8
Sichtbare Kanten(TC_020513_DIN)
100
AcDbLine
 10
368.1574891635465
 20
183.6367704515287
 30
0.0
 11
370.1574891635465
 21
183.6367704515287
 31
0.0
  0
LINE
  5
5ED
330
37
100
AcDbEntity
  8
Sichtbare Kanten(TC_020513_DIN)
100
AcDbLine
 10
370.1574891635465
 20
169.6367704515286
 30
0.0
 11
368.1574891635465
 21
169.6367704515286
 31
0.0
  0
CIRCLE
  5
5EE
330
37
100
AcDbEntity
  8
Sichtbare Kanten(TC_020513_DIN)
100
AcDbCircle
 10
369.1574891635468
 20
176.6367704515286
 30
0.0
 40
25.24
  0
ARC
  5
5EF
330
37
100
AcDbEntity
  8
Sichtbare Kanten(TC_020513_DIN)
100
AcDbCircle
 10
315.1574891635558
 20
245.4367704515286
 30
0.0
 40
5.0
100
AcDbArc
 50
0.0
 51
180.0
  0
LINE
  5
5F0
330
37
100
AcDbEntity
  8
Sichtbare Kanten(TC_020513_DIN)
100
AcDbLine
 10
320.1574891635557
 20
237.4367704515286
 30
0.0
 11
320.1574891635557
 21
245.4367704515286
 31
0.0
  0
LINE
  5
5F1
330
37
100
AcDbEntity
  8
Sichtbare Kanten(TC_020513_DIN)
100
AcDbLine
 10
323.6574891635558
 20
237.4367704515286
 30
0.0
 11
320.1574891635557
 21
237.4367704515286
 31
0.0
  0
LINE
  5
5F2
330
37
100
AcDbEntity
  8
Sichtbare Kanten(TC_020513_DIN)
100
AcDbLine
 10
310.1574891635558
 20
245.4367704515286
 30
0.0
 11
310.1574891635558
 21
232.9367704515287
 31
0.0
  0
LINE
  5
5F3
330
37
100
AcDbEntity
  8
Sichtbare Kanten(TC_020513_DIN)
100
AcDbLine
 10
310.1574891635558
 20
232.9367704515287
 30
0.0
 11
323.6574891635558
 21
219.4367704515286
 31
0.0
  0
LINE
  5
5F4
330
37
100
AcDbEntity
  8
Sichtbare Kanten(TC_020513_DIN)
100
AcDbLine
 10
371.6574891635462
 20
234.9668975000211
 30
0.0
 11
374.1165285536334
 21
233.5471696977445
 31
0.0
  0
ARC
  5
5F5
330
37
100
AcDbEntity
  8
Sichtbare Kanten(TC_020513_DIN)
100
AcDbCircle
 10
369.1574891635462
 20
230.6367704515287
 30
0.0
 40
4.999999999999996
100
AcDbArc
 50
0.0
 51
60.00000000000007
  0
LINE
  5
5F6
330
37
100
AcDbEntity
  8
Sichtbare Kanten(TC_020513_DIN)
100
AcDbLine
 10
374.1574891635463
 20
233.4762234811612
 30
0.0
 11
374.1574891635462
 21
230.6367702607938
 31
0.0
  0
ARC
  5
5F7
330
37
100
AcDbEntity
  8
Sichtbare Kanten(TC_020513_DIN)
100
AcDbCircle
 10
369.157489163543
 20
230.6367704515267
 30
0.0
 40
5.750000000003801
100
AcDbArc
 50
29.59184579395252
 51
30.40815420604919
  0
LINE
  5
5F8
330
37
100
AcDbEntity
  8
Sichtbare Kanten(TC_020513_DIN)
100
AcDbLine
 10
374.1165285536334
 20
227.7263708238431
 30
0.0
 11
371.6574891635462
 21
226.3066430215665
 31
0.0
  0
ARC
  5
5F9
330
37
100
AcDbEntity
  8
Sichtbare Kanten(TC_020513_DIN)
100
AcDbCircle
 10
369.1574891635152
 20
230.6367704515466
 30
0.0
 40
5.750000000035848
100
AcDbArc
 50
329.5918457939551
 51
330.4081542060463
  0
LINE
  5
5FA
330
37
100
AcDbEntity
  8
Sichtbare Kanten(TC_020513_DIN)
100
AcDbLine
 10
374.1574891635462
 20
230.6367702607938
 30
0.0
 11
374.1574891635463
 21
227.7973170404263
 31
0.0
  0
ARC
  5
5FB
330
37
100
AcDbEntity
  8
Sichtbare Kanten(TC_020513_DIN)
100
AcDbCircle
 10
369.1574891635462
 20
230.6367704515287
 30
0.0
 40
4.999999999999998
100
AcDbArc
 50
299.9999999999999
 51
0.0
  0
LINE
  5
5FC
330
37
100
AcDbEntity
  8
Sichtbare Kanten(TC_020513_DIN)
100
AcDbLine
 10
369.1165286095128
 20
224.8869152192899
 30
0.0
 11
366.6574891635462
 21
226.3066430215665
 31
0.0
  0
ARC
  5
5FD
330
37
100
AcDbEntity
  8
Sichtbare Kanten(TC_020513_DIN)
100
AcDbCircle
 10
369.1574891635462
 20
230.6367704515004
 30
0.0
 40
5.749999999971756
100
AcDbArc
 50
269.5918457939491
 51
270.4081542060509
  0
LINE
  5
5FE
330
37
100
AcDbEntity
  8
Sichtbare Kanten(TC_020513_DIN)
100
AcDbLine
 10
371.6574891635462
 20
226.3066430215665
 30
0.0
 11
369.1984497175798
 21
224.8869152192899
 31
0.0
  0
ARC
  5
5FF
330
37
100
AcDbEntity
  8
Sichtbare Kanten(TC_020513_DIN)
100
AcDbCircle
 10
369.1574891635462
 20
230.6367704515287
 30
0.0
 40
5.000000000000007
100
AcDbArc
 50
240.0
 51
299.9999999999999
  0
LINE
  5
600
330
37
100
AcDbEntity
  8
Sichtbare Kanten(TC_020513_DIN)
100
AcDbLine
 10
364.1574891635463
 20
227.7973170404263
 30
0.0
 11
364.1574891635462
 21
230.6367702607938
 31
0.0
  0
ARC
  5
601
330
37
100
AcDbEntity
  8
Sichtbare Kanten(TC_020513_DIN)
100
AcDbCircle
 10
369.157489163555
 20
230.6367704515337
 30
0.0
 40
5.750000000010116
100
AcDbArc
 50
209.5918457939514
 51
210.4081542060484
  0
LINE
  5
602
330
37
100
AcDbEntity
  8
Sichtbare Kanten(TC_020513_DIN)
100
AcDbLine
 10
366.6574891635462
 20
226.3066430215665
 30
0.0
 11
364.1984497734592
 21
227.7263708238431
 31
0.0
  0
ARC
  5
603
330
37
100
AcDbEntity
  8
Sichtbare Kanten(TC_020513_DIN)
100
AcDbCircle
 10
369.1574891635462
 20
230.6367704515287
 30
0.0
 40
4.99999999999999
100
AcDbArc
 50
180.0
 51
240.0
  0
LINE
  5
604
330
37
100
AcDbEntity
  8
Sichtbare Kanten(TC_020513_DIN)
100
AcDbLine
 10
364.1984497734592
 20
233.5471696977445
 30
0.0
 11
366.6574891635462
 21
234.9668975000211
 31
0.0
  0
ARC
  5
605
330
37
100
AcDbEntity
  8
Sichtbare Kanten(TC_020513_DIN)
100
AcDbCircle
 10
369.1574891635387
 20
230.636770451533
 30
0.0
 40
5.749999999991231
100
AcDbArc
 50
149.5918457939496
 51
150.4081542060497
  0
LINE
  5
606
330
37
100
AcDbEntity
  8
Sichtbare Kanten(TC_020513_DIN)
100
AcDbLine
 10
364.1574891635462
 20
230.6367702607938
 30
0.0
 11
364.1574891635463
 21
233.4762234811612
 31
0.0
  0
ARC
  5
607
330
37
100
AcDbEntity
  8
Sichtbare Kanten(TC_020513_DIN)
100
AcDbCircle
 10
369.1574891635462
 20
230.6367704515287
 30
0.0
 40
5.000000000000003
100
AcDbArc
 50
119.9999999999999
 51
180.0
  0
LINE
  5
608
330
37
100
AcDbEntity
  8
Sichtbare Kanten(TC_020513_DIN)
100
AcDbLine
 10
366.6574891635462
 20
234.9668975000211
 30
0.0
 11
369.1165286095128
 21
236.3866253022977
 31
0.0
  0
ARC
  5
609
330
37
100
AcDbEntity
  8
Sichtbare Kanten(TC_020513_DIN)
100
AcDbCircle
 10
369.1574891635462
 20
230.6367704515287
 30
0.0
 40
5.000000000000003
100
AcDbArc
 50
60.00000000000007
 51
120.0000000000001
  0
LINE
  5
60A
330
37
100
AcDbEntity
  8
Sichtbare Kanten(TC_020513_DIN)
100
AcDbLine
 10
369.1984497175798
 20
236.3866253022977
 30
0.0
 11
371.6574891635462
 21
234.9668975000211
 31
0.0
  0
ARC
  5
60B
330
37
100
AcDbEntity
  8
Sichtbare Kanten(TC_020513_DIN)
100
AcDbCircle
 10
369.1574891635462
 20
230.6367704515381
 30
0.0
 40
5.74999999999047
100
AcDbArc
 50
89.59184579394975
 51
90.40815420605024
  0
LINE
  5
60C
330
37
100
AcDbEntity
  8
Sichtbare Kanten(TC_020513_DIN)
100
AcDbLine
 10
339.6574891635482
 20
237.6367704515287
 30
0.0
 11
359.1574891635482
 21
237.6367704515287
 31
0.0
  0
LINE
  5
60D
330
37
100
AcDbEntity
  8
Sichtbare Kanten(TC_020513_DIN)
100
AcDbLine
 10
384.0117378524837
 20
237.6367704515287
 30
0.0
 11
389.3032404746128
 21
237.6367704515287
 31
0.0
  0
LINE
  5
60E
330
37
100
AcDbEntity
  8
Sichtbare Kanten(TC_020513_DIN)
100
AcDbLine
 10
339.6574891635482
 20
237.6367704515287
 30
0.0
 11
323.5574891635528
 21
237.6367704515287
 31
0.0
  0
LINE
  5
60F
330
37
100
AcDbEntity
  8
Sichtbare Kanten(TC_020513_DIN)
100
AcDbLine
 10
339.6574891635482
 20
243.1367704515287
 30
0.0
 11
323.5574891635528
 21
243.1367704515287
 31
0.0
  0
LINE
  5
610
330
37
100
AcDbEntity
  8
Sichtbare Kanten(TC_020513_DIN)
100
AcDbLine
 10
323.557489163553
 20
243.1367704515287
 30
0.0
 11
323.557489163553
 21
237.6367704515287
 31
0.0
  0
LINE
  5
611
330
37
100
AcDbEntity
  8
Sichtbare Kanten(TC_020513_DIN)
100
AcDbLine
 10
339.6574891635482
 20
243.1367704515287
 30
0.0
 11
359.1574891635482
 21
243.1367704515287
 31
0.0
  0
LINE
  5
612
330
37
100
AcDbEntity
  8
Sichtbare Kanten(TC_020513_DIN)
100
AcDbLine
 10
378.6347776009706
 20
243.1367704515287
 30
0.0
 11
389.7799881627475
 21
243.1367704515287
 31
0.0
  0
LINE
  5
613
330
37
100
AcDbEntity
  8
Sichtbare Kanten(TC_020513_DIN)
100
AcDbLine
 10
414.7574891635531
 20
243.1367704515287
 30
0.0
 11
414.7574891635531
 21
242.5841951806891
 31
0.0
  0
LINE
  5
614
330
37
100
AcDbEntity
  8
Sichtbare Kanten(TC_020513_DIN)
100
AcDbLine
 10
414.7574891635531
 20
243.1367704515287
 30
0.0
 11
414.0169248714066
 21
243.1367704515287
 31
0.0
  0
LINE
  5
615
330
37
100
AcDbEntity
  8
Mittellinie(TC_020513_DIN)
  6
CHAIN
 48
8.889559745788574
100
AcDbLine
 10
105.2401657893262
 20
297.6367704515287
 30
0.0
 11
89.24016578932617
 21
297.6367704515287
 31
0.0
  0
LINE
  5
616
330
37
100
AcDbEntity
  8
Mittellinie(TC_020513_DIN)
  6
CHAIN
 48
8.889559745788574
100
AcDbLine
 10
248.9401657893262
 20
297.6367704515287
 30
0.0
 11
232.9401657893262
 21
297.6367704515287
 31
0.0
  0
LINE
  5
617
330
37
100
AcDbEntity
  8
Mittellinie(TC_020513_DIN)
  6
CHAIN
 48
6.982164859771728
100
AcDbLine
 10
89.7731784912184
 20
230.6367704515287
 30
0.0
 11
102.3401657893262
 21
230.6367704515287
 31
0.0
  0
LINE
  5
618
330
37
100
AcDbEntity
  8
Mittellinie(TC_020513_DIN)
  6
CHAIN
 48
6.982164859771728
100
AcDbLine
 10
235.8401657893262
 20
230.6367704515287
 30
0.0
 11
248.407153087434
 21
230.6367704515287
 31
0.0
  0
LINE
  5
619
330
37
100
AcDbEntity
  8
Mittellinie(TC_020513_DIN)
  6
CHAIN
 48
9.445162773132324
100
AcDbLine
 10
113.5901657893262
 20
139.1367704515286
 30
0.0
 11
113.5901657893262
 21
156.1367704515286
 31
0.0
  0
LINE
  5
61A
330
37
100
AcDbEntity
  8
Mittellinie(TC_020513_DIN)
  6
CHAIN
 48
9.445162773132324
100
AcDbLine
 10
224.5901657893262
 20
156.1367704515286
 30
0.0
 11
224.5901657893262
 21
139.1367704515286
 31
0.0
  0
LINE
  5
61B
330
37
100
AcDbEntity
  8
Mittellinie(TC_020513_DIN)
  6
CHAIN
 48
13.33438873291015
100
AcDbLine
 10
220.5901657893262
 20
176.0557704515286
 30
0.0
 11
244.5901657893262
 21
176.0557704515286
 31
0.0
  0
LINE
  5
61C
330
37
100
AcDbEntity
  8
Mittellinie(TC_020513_DIN)
  6
CHAIN
 48
9.722965240478515
100
AcDbLine
 10
93.09016578932617
 20
176.6367704515286
 30
0.0
 11
110.5901657893261
 21
176.6367704515286
 31
0.0
  0
LINE
  5
61D
330
37
100
AcDbEntity
  8
Mittellinie(TC_020513_DIN)
  6
CHAIN
 48
9.445162773132324
100
AcDbLine
 10
316.1574891635518
 20
156.1367704515286
 30
0.0
 11
316.1574891635518
 21
139.1367704515286
 31
0.0
  0
LINE
  5
61E
330
37
100
AcDbEntity
  8
Mittellinie(TC_020513_DIN)
  6
CHAIN
 48
9.445162773132324
100
AcDbLine
 10
422.1574891635517
 20
139.1367704515286
 30
0.0
 11
422.1574891635517
 21
156.1367704515286
 31
0.0
  0
LINE
  5
61F
330
37
100
AcDbEntity
  8
Mittelpunktmarkierung(TC_020513_DIN)
  6
CHAIN
 48
23.99096870422363
100
AcDbLine
 10
399.3974891635468
 20
176.6367704515286
 30
0.0
 11
338.9174891635468
 21
176.6367704515286
 31
0.0
  0
LINE
  5
620
330
37
100
AcDbEntity
  8
Mittelpunktmarkierung(TC_020513_DIN)
  6
CHAIN
 48
23.99096870422363
100
AcDbLine
 10
369.1574891635468
 20
206.8767704515287
 30
0.0
 11
369.1574891635468
 21
146.3967704515286
 31
0.0
  0
LINE
  5
621
330
37
100
AcDbEntity
  8
Mittelpunktmarkierung(TC_020513_DIN)
  6
CHAIN
 48
8.333955764770507
100
AcDbLine
 10
322.1574891635567
 20
243.1367704515287
 30
0.0
 11
307.1574891635568
 21
243.1367704515287
 31
0.0
  0
LINE
  5
622
330
37
100
AcDbEntity
  8
Mittelpunktmarkierung(TC_020513_DIN)
  6
CHAIN
 48
8.333955764770507
100
AcDbLine
 10
314.6574891635568
 20
250.6367704515287
 30
0.0
 11
314.6574891635568
 21
235.6367704515287
 31
0.0
  0
LINE
  5
623
330
37
100
AcDbEntity
  8
Mittelpunktmarkierung(TC_020513_DIN)
  6
CHAIN
 48
10.00076675415039
100
AcDbLine
 10
378.1574891635474
 20
230.6367704515287
 30
0.0
 11
360.1574891635475
 21
230.6367704515287
 31
0.0
  0
LINE
  5
624
330
37
100
AcDbEntity
  8
Mittelpunktmarkierung(TC_020513_DIN)
  6
CHAIN
 48
10.00076675415039
100
AcDbLine
 10
369.1574891635474
 20
239.6367704515286
 30
0.0
 11
369.1574891635474
 21
221.6367704515286
 31
0.0
  0
LINE
  5
625
330
37
100
AcDbEntity
  8
Mittelpunktmarkierung(TC_020513_DIN)
  6
CHAIN
 48
10.00076675415039
100
AcDbLine
 10
314.1574891635461
 20
297.6367704515287
 30
0.0
 11
296.1574891635461
 21
297.6367704515287
 31
0.0
  0
LINE
  5
626
330
37
100
AcDbEntity
  8
Mittelpunktmarkierung(TC_020513_DIN)
  6
CHAIN
 48
10.00076675415039
100
AcDbLine
 10
305.1574891635461
 20
306.6367704515287
 30
0.0
 11
305.1574891635461
 21
288.6367704515287
 31
0.0
  0
DIMENSION
  5
627
330
37
100
AcDbEntity
  8
Bemaßungen(TC_020513_DIN)
  6
Continuous
 62
     7
370
    25
100
AcDbDimension
  2
*D11
 10
259.5901657893262
 20
152.7347704515286
 30
0.0
 11
259.5901657893262
 21
176.6367704515286
 31
0.0
 70
   160
  1
<>
 42
47.804
  3
STANDARD-TC_020513_DIN
100
AcDbAlignedDimension
 13
239.5901657893262
 23
200.5387704515286
 33
0.0
 14
239.5901657893262
 24
152.7347704515286
 34
0.0
 50
90.0
100
AcDbRotatedDimension
1001
ACAD
1000
DSTYLE
1002
{
1070
   271
1070
     2
1070
   272
1070
     2
1070
    48
1040
0.0
1070
    47
1040
0.0
1002
}
  0
DIMENSION
  5
6ED
330
37
100
AcDbEntity
  8
Bemaßungen(TC_020513_DIN)
  6
Continuous
 62
     7
370
    25
100
AcDbDimension
  2
*D12
 10
73.09016578932618
 20
152.7347704515286
 30
0.0
 11
73.09016578932617
 21
176.6367704515286
 31
0.0
 70
   160
  1
<>
 42
47.804
  3
STANDARD-TC_020513_DIN
100
AcDbAlignedDimension
 13
105.0901657893261
 23
200.5387704515286
 33
0.0
 14
105.0901657893261
 24
152.7347704515286
 34
0.0
 50
90.0
100
AcDbRotatedDimension
1001
ACAD
1000
DSTYLE
1002
{
1070
   271
1070
     2
1070
   272
1070
     2
1070
    48
1040
0.0
1070
    47
1040
0.0
1002
}
  0
DIMENSION
  5
7B2
330
37
100
AcDbEntity
  8
Bemaßungen(TC_020513_DIN)
  6
Continuous
 62
     7
370
    25
100
AcDbDimension
  2
*D13
 10
56.31351046085416
 20
343.1367704515287
 30
0.0
 11
56.31351046085409
 21
238.479935372143
 31
0.0
 70
   160
  1
<>
 42
199.0
  3
STANDARD-TC_020513_DIN
100
AcDbAlignedDimension
 13
101.0901657893262
 23
144.1367704515286
 33
0.0
 14
117.3401657893262
 24
343.1367704515287
 34
0.0
 50
270.0
100
AcDbRotatedDimension
1001
ACAD
1000
DSTYLE
1002
{
1070
   271
1070
     2
1070
   272
1070
     2
1070
    48
1040
0.0
1070
    47
1040
0.0
1002
}
  0
DIMENSION
  5
877
330
37
100
AcDbEntity
  8
Bemaßungen(TC_020513_DIN)
  6
Continuous
 62
     7
370
    25
100
AcDbDimension
  2
*D14
 10
94.34016578932618
 20
359.1367704515287
 30
0.0
 11
169.0901657893262
 21
359.1367704515287
 31
0.0
 70
   160
  1
<>
 42
149.5
  3
STANDARD-TC_020513_DIN
100
AcDbAlignedDimension
 13
243.8401657893262
 23
235.3018339609898
 33
0.0
 14
94.34016578932617
 24
235.3018339609898
 34
0.0
 50
180.0
100
AcDbRotatedDimension
1001
ACAD
1000
DSTYLE
1002
{
1070
   271
1070
     2
1070
   272
1070
     2
1070
    48
1040
0.0
1070
    47
1040
0.0
1002
}
  0
ARC
  5
93C
330
37
100
AcDbEntity
  8
Stich 1-Linien(TC_020513_DIN)
 48
28.23520088195801
100
AcDbCircle
 10
369.157489163547
 20
230.6367704515287
 30
0.0
 40
94.00259450641373
100
AcDbArc
 50
338.6565110202322
 51
0.0
  0
DIMENSION
  5
93D
330
37
100
AcDbEntity
  8
Bemaßungen(TC_020513_DIN)
  6
Continuous
 62
     7
370
    25
100
AcDbDimension
  2
*D15
 10
463.1600836699607
 20
359.1367704515286
 30
0.0
 11
379.4087864167559
 21
359.1367704515286
 31
0.0
 70
   160
  1
<>
 42
167.5025945064096
  3
STANDARD-TC_020513_DIN
100
AcDbAlignedDimension
 13
295.6574891635511
 23
339.1367704515287
 33
0.0
 14
463.1600836699607
 24
230.6367704515287
 34
0.0
 50
180.0
100
AcDbRotatedDimension
1001
ACAD
1000
DSTYLE
1002
{
1070
   271
1070
     2
1070
   272
1070
     2
1070
    48
1040
0.0
1070
    47
1040
0.0
1002
}
  0
DIMENSION
  5
A02
330
37
100
AcDbEntity
  8
Bemaßungen(TC_020513_DIN)
  6
Continuous
 62
     7
370
    25
100
AcDbDimension
  2
*D16
 10
224.5901657893262
 20
119.1367704515286
 30
0.0
 11
169.0901657893262
 21
119.1367704515286
 31
0.0
 70
   160
  1
<>
 42
111.0
  3
STANDARD-TC_020513_DIN
100
AcDbAlignedDimension
 13
113.5901657893262
 23
139.1367704515286
 33
0.0
 14
224.5901657893262
 24
139.1367704515286
 34
0.0
 50
180.0
100
AcDbRotatedDimension
1001
ACAD
1000
DSTYLE
1002
{
1070
   271
1070
     2
1070
   272
1070
     2
1070
    48
1040
0.0
1070
    47
1040
0.0
1002
}
  0
DIMENSION
  5
AC7
330
37
100
AcDbEntity
  8
Bemaßungen(TC_020513_DIN)
  6
Continuous
 62
     7
370
    25
100
AcDbDimension
  2
*D17
 10
239.5901657893262
 20
103.1367704515286
 30
0.0
 11
169.0901657893262
 21
103.1367704515286
 31
0.0
 70
   160
  1
<>
 42
141.0
  3
STANDARD-TC_020513_DIN
100
AcDbAlignedDimension
 13
98.59016578932619
 23
147.1367704515286
 33
0.0
 14
239.5901657893262
 24
147.1367704515286
 34
0.0
 50
180.0
100
AcDbRotatedDimension
1001
ACAD
1000
DSTYLE
1002
{
1070
   271
1070
     2
1070
   272
1070
     2
1070
    48
1040
0.0
1070
    47
1040
0.0
1002
}
  0
DIMENSION
  5
B8C
330
37
100
AcDbEntity
  8
Bemaßungen(TC_020513_DIN)
  6
Continuous
 62
     7
370
    25
100
AcDbDimension
  2
*D18
 10
422.1574891635517
 20
119.1367704515286
 30
0.0
 11
369.1574891635519
 21
119.1367704515286
 31
0.0
 70
   160
  1
<>
 42
106.0
  3
STANDARD-TC_020513_DIN
100
AcDbAlignedDimension
 13
316.1574891635518
 23
139.1367704515286
 33
0.0
 14
422.1574891635517
 24
139.1367704515286
 34
0.0
 50
180.0
100
AcDbRotatedDimension
1001
ACAD
1000
DSTYLE
1002
{
1070
   271
1070
     2
1070
   272
1070
     2
1070
    48
1040
0.0
1070
    47
1040
0.0
1002
}
  0
DIMENSION
  5
C51
330
37
100
AcDbEntity
  8
Bemaßungen(TC_020513_DIN)
  6
Continuous
 62
     7
370
    25
100
AcDbDimension
  2
*D19
 10
429.1574891635481
 20
102.9894700727388
 30
0.0
 11
369.1574891635481
 21
102.9894700727388
 31
0.0
 70
   160
  1
<>
 42
120.0
  3
STANDARD-TC_020513_DIN
100
AcDbAlignedDimension
 13
309.1574891635481
 23
147.1367704515286
 33
0.0
 14
429.1574891635481
 24
147.1367704515286
 34
0.0
 50
180.0
100
AcDbRotatedDimension
1001
ACAD
1000
DSTYLE
1002
{
1070
   271
1070
     2
1070
   272
1070
     2
1070
    48
1040
0.0
1070
    47
1040
0.0
1002
}
  0
DIMENSION
  5
D16
330
37
100
AcDbEntity
  8
Bemaßungen(TC_020513_DIN)
  6
Continuous
 62
     7
370
    25
100
AcDbDimension
  2
*D20
 10
506.7207006750034
 20
144.1367704515286
 30
0.0
 11
506.7207006750034
 21
193.6367704515286
 31
0.0
 70
   160
  1
<>
 42
99.0
  3
STANDARD-TC_020513_DIN
100
AcDbAlignedDimension
 13
398.6574891635482
 23
243.1367704515287
 33
0.0
 14
426.6574891635474
 24
144.1367704515286
 34
0.0
 50
270.0
100
AcDbRotatedDimension
1001
ACAD
1000
DSTYLE
1002
{
1070
   271
1070
     2
1070
   272
1070
     2
1070
    48
1040
0.0
1070
    47
1040
0.0
1002
}
  0
DIMENSION
  5
DDB
330
37
100
AcDbEntity
  8
Bemaßungen(TC_020513_DIN)
  6
Continuous
 62
     7
370
    25
100
AcDbDimension
  2
*D21
 10
482.6574891635478
 20
144.1367704515286
 30
0.0
 11
482.6574891635477
 21
165.0024594010512
 31
0.0
 70
   160
  1
<>
 42
7.0
  3
STANDARD-TC_020513_DIN
100
AcDbAlignedDimension
 13
426.6574891635476
 23
151.1367704515286
 33
0.0
 14
426.6574891635474
 24
144.1367704515286
 34
0.0
 50
90.0
100
AcDbRotatedDimension
1001
ACAD
1000
DSTYLE
1002
{
1070
   271
1070
     2
1070
   272
1070
     2
1070
    48
1040
0.0
1070
    47
1040
0.0
1002
}
  0
MTEXT
  5
EBA
102
{ACAD_REACTORS
330
EBC
102
}
330
37
100
AcDbEntity
  8
Symbole(TC_020513_DIN)
 62
     7
100
AcDbMText
 10
443.7483599496126
 20
181.3368161499531
 30
0.0
 40
6.99999988079071
 41
24.14947271347046
 71
     1
 72
     1
  1
{\fAIGDT|b0|i0;\H7.0000;n\fArial|b0|i0;\H7.0000; 6,5}
  7
Aktuell-BSI
 73
     1
 44
1.0
1001
ACAD
1000
MTEXTBEGIN
1070
    73
1070
     1
1070
    44
1040
1.0
1070
    74
1070
     0
1000
MTEXTEND
  0
LEADER
  5
EBC
330
37
100
AcDbEntity
  8
Symbole(TC_020513_DIN)
  6
Continuous
 62
     7
370
    25
100
AcDbLeader
  3
STANDARD-TC_020513_DIN$7
 73
     0
 40
8.413369713506138
 41
20.71350613915416
 76
     3
 10
422.1574891635517
 20
151.1367704515286
 30
0.0
 10
434.9001853416508
 20
177.8368162095578
 30
0.0
 10
442.1483599496126
 20
177.8368162095578
 30
0.0
340
EBA
213
0.0
223
-3.499999940395355
233
0.0
1001
ACAD
1000
DSTYLE
1002
{
1070
    77
1070
     0
1002
}
  0
ENDSEC
  0
SECTION
  2
OBJECTS
  0
DICTIONARY
  5
C
330
0
100
AcDbDictionary
281
     1
  3
ACAD_COLOR
350
30
  3
ACAD_GROUP
350
D
  3
ACAD_LAYOUT
350
2F
  3
ACAD_MATERIAL
350
10
  3
ACAD_MLINESTYLE
350
2C
  3
ACAD_PLOTSETTINGS
350
2E
  3
ACAD_PLOTSTYLENAME
350
E
  3
ACAD_TABLESTYLE
350
31
  3
ACAD_VISUALSTYLE
350
14
  3
AcDbVariableDictionary
350
EBD
  3
DWGPROPS
350
EC3
  0
DICTIONARY
  5
ED2
330
FA
100
AcDbDictionary
280
     1
281
     1
  3
ACAD_MTEXT_RT
360
ED3
  0
DICTIONARY
  5
ED4
330
10A
100
AcDbDictionary
280
     1
281
     1
  3
ACAD_MTEXT_RT
360
ED5
  0
DICTIONARY
  5
ED6
330
12B
100
AcDbDictionary
280
     1
281
     1
  3
ACAD_MTEXT_RT
360
ED7
  0
DICTIONARY
  5
30
102
{ACAD_REACTORS
330
C
102
}
330
C
100
AcDbDictionary
281
     1
  0
DICTIONARY
  5
D
102
{ACAD_REACTORS
330
C
102
}
330
C
100
AcDbDictionary
281
     1
  0
DICTIONARY
  5
2F
102
{ACAD_REACTORS
330
C
102
}
330
C
100
AcDbDictionary
281
     1
  3
Layout1
350
36
  3
Layout2
350
3E
  3
Model
350
3A
  0
DICTIONARY
  5
10
102
{ACAD_REACTORS
330
C
102
}
330
C
100
AcDbDictionary
281
     1
  3
ByBlock
350
12
  3
ByLayer
350
11
  3
Global
350
13
  0
DICTIONARY
  5
2C
102
{ACAD_REACTORS
330
C
102
}
330
C
100
AcDbDictionary
281
     1
  3
Standard
350
2D
  0
DICTIONARY
  5
2E
102
{ACAD_REACTORS
330
C
102
}
330
C
100
AcDbDictionary
281
     1
  0
ACDBDICTIONARYWDFLT
  5
E
102
{ACAD_REACTORS
330
C
102
}
330
C
100
AcDbDictionary
281
     1
  3
Normal
350
F
100
AcDbDictionaryWithDefault
340
F
  0
DICTIONARY
  5
31
102
{ACAD_REACTORS
330
C
102
}
330
C
100
AcDbDictionary
281
     1
  3
Standard
350
32
  0
DICTIONARY
  5
14
102
{ACAD_REACTORS
330
C
102
}
330
C
100
AcDbDictionary
281
     1
  3
2dWireframe
350
1A
  3
3D Hidden
350
1C
  3
3dWireframe
350
1B
  3
Basic
350
19
  3
Brighten
350
20
  3
ColorChange
350
24
  3
Conceptual
350
1D
  3
Dim
350
1F
  3
Facepattern
350
23
  3
Flat
350
15
  3
FlatWithEdges
350
16
  3
Gouraud
350
17
  3
GouraudWithEdges
350
18
  3
Linepattern
350
22
  3
Realistic
350
1E
  3
Thicken
350
21
  0
DICTIONARY
  5
EBD
102
{ACAD_REACTORS
330
C
102
}
330
C
100
AcDbDictionary
281
     1
  3
CTABLESTYLE
350
EBE
  3
DIMASSOC
350
EC2
  3
HIDETEXT
350
EC1
  3
INDEXCTL
350
EC0
  3
SORTENTS
350
EBF
  0
XRECORD
  5
EC3
102
{ACAD_REACTORS
330
C
102
}
330
C
100
AcDbXrecord
280
     1
  1
DWGPROPS COOKIE
  2

  3

  4
Hodapp
  6

  7

  8

  9

300
Manager=
301
Firma=
302
Kategorie=
303
Bauteilnummer=CHPR 48 LS
304
Bezeichnung=
305
Projekt=
306
Konstrukteur=Hodapp
307
Ingenieur=
308
Bevollmächtigter=
309
Kostenstelle=
 40
0.0000649189814815
 41
2454105.773206598
 42
2454105.773206598
  1

 90
       22
300
Zulieferer=
300
Benutzerstatus=
300
Konstruktionsstatus=InBearbeitung
300
Kontrolliert von=
300
Konstruktion genehmigt von=
300
Fertigung genehmigt von=
300
FirstViewScale:1=1:1
300
SaveDate=08/30/2006
300
SaveTime=14:09
300
PaperSize=A4
300
AllViewScales=1:2
300
FirstViewScale=1:2
  0
XRECORD
  5
ED3
102
{ACAD_REACTORS
330
ED2
102
}
330
ED2
100
AcDbXrecord
280
     1
 40
45260.0
  1
Für spanlose Bearbeitung
  0
XRECORD
  5
ED5
102
{ACAD_REACTORS
330
ED4
102
}
330
ED4
100
AcDbXrecord
280
     1
 40
49954.0
  1
Alle nicht bemaßten Radien R
  0
XRECORD
  5
ED7
102
{ACAD_REACTORS
330
ED6
102
}
330
ED6
100
AcDbXrecord
280
     1
 40
53914.0
  1
Werkstückkanten\Pnach ISO 13715
  0
LAYOUT
  5
36
102
{ACAD_XDICTIONARY
360
ECC
102
}
102
{ACAD_REACTORS
330
2F
102
}
330
2F
100
AcDbPlotSettings
  1

  2

  4

  6

 40
0.0
 41
0.0
 42
0.0
 43
0.0
 44
0.0
 45
0.0
 46
0.0
 47
0.0
 48
0.0
 49
0.0
140
0.0
141
0.0
142
1.0
143
1.0
 70
   688
 72
     0
 73
     0
 74
     5
  7

 75
    16
147
1.0
148
0.0
149
0.0
100
AcDbLayout
  1
Layout1
 70
     1
 71
     1
 10
0.0
 20
0.0
 11
12.0
 21
9.0
 12
0.0
 22
0.0
 32
0.0
 14
0.0
 24
0.0
 34
0.0
 15
0.0
 25
0.0
 35
0.0
146
0.0
 13
0.0
 23
0.0
 33
0.0
 16
1.0
 26
0.0
 36
0.0
 17
0.0
 27
1.0
 37
0.0
 76
     0
330
33
  0
LAYOUT
  5
3E
102
{ACAD_XDICTIONARY
360
ED0
102
}
102
{ACAD_REACTORS
330
2F
102
}
330
2F
100
AcDbPlotSettings
  1

  2

  4

  6

 40
0.0
 41
0.0
 42
0.0
 43
0.0
 44
0.0
 45
0.0
 46
0.0
 47
0.0
 48
0.0
 49
0.0
140
0.0
141
0.0
142
1.0
143
1.0
 70
   688
 72
     0
 73
     0
 74
     5
  7

 75
    16
147
1.0
148
0.0
149
0.0
100
AcDbLayout
  1
Layout2
 70
     1
 71
     2
 10
0.0
 20
0.0
 11
12.0
 21
9.0
 12
0.0
 22
0.0
 32
0.0
 14
0.0
 24
0.0
 34
0.0
 15
0.0
 25
0.0
 35
0.0
146
0.0
 13
0.0
 23
0.0
 33
0.0
 16
1.0
 26
0.0
 36
0.0
 17
0.0
 27
1.0
 37
0.0
 76
     0
330
3B
  0
LAYOUT
  5
3A
102
{ACAD_XDICTIONARY
360
ECE
102
}
102
{ACAD_REACTORS
330
2F
102
}
330
2F
100
AcDbPlotSettings
  1

  2

  4

  6

 40
0.0
 41
0.0
 42
0.0
 43
0.0
 44
0.0
 45
0.0
 46
0.0
 47
0.0
 48
0.0
 49
0.0
140
0.0
141
0.0
142
1.0
143
1.0
 70
  1712
 72
     0
 73
     0
 74
     0
  7

 75
     0
147
1.0
148
0.0
149
0.0
100
AcDbLayout
  1
Model
 70
     1
 71
     0
 10
0.0
 20
0.0
 11
12.0
 21
9.0
 12
0.0
 22
0.0
 32
0.0
 14
0.0
 24
0.0
 34
0.0
 15
0.0
 25
0.0
 35
0.0
146
0.0
 13
0.0
 23
0.0
 33
0.0
 16
1.0
 26
0.0
 36
0.0
 17
0.0
 27
1.0
 37
0.0
 76
     0
330
37
  0
MATERIAL
  5
12
102
{ACAD_XDICTIONARY
360
EC6
102
}
102
{ACAD_REACTORS
330
10
102
}
330
10
100
AcDbMaterial
  1
ByBlock
  0
MATERIAL
  5
11
102
{ACAD_XDICTIONARY
360
EC4
102
}
102
{ACAD_REACTORS
330
10
102
}
330
10
100
AcDbMaterial
  1
ByLayer
  0
MATERIAL
  5
13
102
{ACAD_XDICTIONARY
360
EC8
102
}
102
{ACAD_REACTORS
330
10
102
}
330
10
100
AcDbMaterial
  1
Global
  0
MLINESTYLE
  5
2D
102
{ACAD_REACTORS
330
2C
102
}
330
2C
100
AcDbMlineStyle
  2
STANDARD
 70
     0
  3

 62
   256
 51
90.0
 52
90.0
 71
     2
 49
0.5
 62
   256
  6
BYLAYER
 49
-0.5
 62
   256
  6
BYLAYER
  0
ACDBPLACEHOLDER
  5
F
102
{ACAD_REACTORS
330
E
102
}
330
E
  0
TABLESTYLE
  5
32
102
{ACAD_XDICTIONARY
360
ECA
102
}
102
{ACAD_REACTORS
330
31
102
}
330
31
100
AcDbTableStyle
  3
Standard
 70
     0
 71
     0
 40
0.06
 41
0.06
280
     0
281
     0
  7
Standard
140
0.18
170
     2
 62
     0
 63
     7
283
     0
274
    -2
284
     1
 64
     0
275
    -2
285
     1
 65
     0
276
    -2
286
     1
 66
     0
277
    -2
287
     1
 67
     0
278
    -2
288
     1
 68
     0
279
    -2
289
     1
 69
     0
  7
Standard
140
0.25
170
     5
 62
     0
 63
     7
283
     0
274
    -2
284
     1
 64
     0
275
    -2
285
     1
 65
     0
276
    -2
286
     1
 66
     0
277
    -2
287
     1
 67
     0
278
    -2
288
     1
 68
     0
279
    -2
289
     1
 69
     0
  7
Standard
140
0.18
170
     5
 62
     0
 63
     7
283
     0
274
    -2
284
     1
 64
     0
275
    -2
285
     1
 65
     0
276
    -2
286
     1
 66
     0
277
    -2
287
     1
 67
     0
278
    -2
288
     1
 68
     0
279
    -2
289
     1
 69
     0
  0
VISUALSTYLE
  5
1A
102
{ACAD_REACTORS
330
14
102
}
330
14
100
AcDbVisualStyle
  2
2dWireframe
 70
     4
 71
     0
 72
     2
 73
     0
 90
        0
 40
-0.6
 41
-30.0
 62
     5
 63
     7
 74
     1
 91
        4
 64
     7
 65
   257
 75
     1
175
     1
 42
1.0
 92
        0
 66
   257
 43
1.0
 76
     1
 77
     6
 78
     2
 67
     7
 79
     5
170
     0
171
     0
290
     0
174
     0
 93
        1
 44
0.0
173
     0
291
     0
 45
0.0
1001
ACAD
1000
AcDbSavedByObjectVersion
1070
     0
  0
VISUALSTYLE
  5
1C
102
{ACAD_REACTORS
330
14
102
}
330
14
100
AcDbVisualStyle
  2
3D Hidden
 70
     6
 71
     1
 72
     2
 73
     2
 90
        0
 40
-0.6
 41
-30.0
 62
     5
 63
     7
 74
     2
 91
        2
 64
     7
 65
   257
 75
     2
175
     1
 42
40.0
 92
        0
 66
   257
 43
1.0
 76
     1
 77
     6
 78
     2
 67
     7
 79
     3
170
     0
171
     0
290
     0
174
     0
 93
        1
 44
0.0
173
     0
291
     0
 45
0.0
1001
ACAD
1000
AcDbSavedByObjectVersion
1070
     0
  0
VISUALSTYLE
  5
1B
102
{ACAD_REACTORS
330
14
102
}
330
14
100
AcDbVisualStyle
  2
3dWireframe
 70
     5
 71
     0
 72
     2
 73
     0
 90
        0
 40
-0.6
 41
-30.0
 62
     5
 63
     7
 74
     1
 91
        4
 64
     7
 65
   257
 75
     1
175
     1
 42
1.0
 92
        0
 66
   257
 43
1.0
 76
     1
 77
     6
 78
     2
 67
     7
 79
     5
170
     0
171
     0
290
     0
174
     0
 93
        1
 44
0.0
173
     0
291
     0
 45
0.0
1001
ACAD
1000
AcDbSavedByObjectVersion
1070
     0
  0
VISUALSTYLE
  5
19
102
{ACAD_REACTORS
330
14
102
}
330
14
100
AcDbVisualStyle
  2
Basic
 70
     7
 71
     1
 72
     0
 73
     1
 90
        0
 40
-0.6
 41
-30.0
 62
     5
 63
     7
 74
     0
 91
        4
 64
     7
 65
   257
 75
     1
175
     1
 42
1.0
 92
        8
 66
     7
 43
1.0
 76
     1
 77
     6
 78
     2
 67
     7
 79
     5
170
     0
171
     0
290
     0
174
     0
 93
        1
 44
0.0
173
     0
291
     1
 45
0.0
1001
ACAD
1000
AcDbSavedByObjectVersion
1070
     0
  0
VISUALSTYLE
  5
20
102
{ACAD_REACTORS
330
14
102
}
330
14
100
AcDbVisualStyle
  2
Brighten
 70
    12
 71
     2
 72
     2
 73
     0
 90
        0
 40
-0.6
 41
-30.0
 62
     5
 63
     7
 74
     1
 91
        4
 64
     7
 65
   257
 75
     1
175
     1
 42
1.0
 92
        8
 66
     7
 43
1.0
 76
     1
 77
     6
 78
     2
 67
     7
 79
     5
170
     0
171
     0
290
     0
174
     0
 93
        1
 44
50.0
173
     0
291
     1
 45
0.0
1001
ACAD
1000
AcDbSavedByObjectVersion
1070
     0
  0
VISUALSTYLE
  5
24
102
{ACAD_REACTORS
330
14
102
}
330
14
100
AcDbVisualStyle
  2
ColorChange
 70
    16
 71
     2
 72
     2
 73
     3
 90
        0
 40
-0.6
 41
-30.0
 62
     5
 63
     8
 74
     1
 91
        4
 64
     7
 65
   257
 75
     1
175
     1
 42
1.0
 92
        8
 66
     8
 43
1.0
 76
     1
 77
     6
 78
     2
 67
     7
 79
     5
170
     0
171
     0
290
     0
174
     0
 93
        1
 44
0.0
173
     0
291
     1
 45
0.0
1001
ACAD
1000
AcDbSavedByObjectVersion
1070
     0
  0
VISUALSTYLE
  5
1D
102
{ACAD_REACTORS
330
14
102
}
330
14
100
AcDbVisualStyle
  2
Conceptual
 70
     9
 71
     3
 72
     2
 73
     0
 90
        0
 40
-0.6
 41
-30.0
 62
     5
 63
     7
 74
     2
 91
        2
 64
     7
 65
   257
 75
     1
175
     1
 42
40.0
 92
        8
 66
     7
 43
1.0
 76
     1
 77
     6
 78
     2
 67
     7
 79
     3
170
     0
171
     0
290
     0
174
     0
 93
        1
 44
0.0
173
     0
291
     0
 45
0.0
1001
ACAD
1000
AcDbSavedByObjectVersion
1070
     0
  0
VISUALSTYLE
  5
1F
102
{ACAD_REACTORS
330
14
102
}
330
14
100
AcDbVisualStyle
  2
Dim
 70
    11
 71
     2
 72
     2
 73
     0
 90
        0
 40
-0.6
 41
-30.0
 62
     5
 63
     7
 74
     1
 91
        4
 64
     7
 65
   257
 75
     1
175
     1
 42
1.0
 92
        8
 66
     7
 43
1.0
 76
     1
 77
     6
 78
     2
 67
     7
 79
     5
170
     0
171
     0
290
     0
174
     0
 93
        1
 44
-50.0
173
     0
291
     1
 45
0.0
1001
ACAD
1000
AcDbSavedByObjectVersion
1070
     0
  0
VISUALSTYLE
  5
23
102
{ACAD_REACTORS
330
14
102
}
330
14
100
AcDbVisualStyle
  2
Facepattern
 70
    15
 71
     2
 72
     2
 73
     0
 90
        0
 40
-0.6
 41
-30.0
 62
     5
 63
     7
 74
     1
 91
        4
 64
     7
 65
   257
 75
     1
175
     1
 42
1.0
 92
        8
 66
     7
 43
1.0
 76
     1
 77
     6
 78
     2
 67
     7
 79
     5
170
     0
171
     0
290
     0
174
     0
 93
        1
 44
0.0
173
     0
291
     1
 45
0.0
1001
ACAD
1000
AcDbSavedByObjectVersion
1070
     0
  0
VISUALSTYLE
  5
15
102
{ACAD_REACTORS
330
14
102
}
330
14
100
AcDbVisualStyle
  2
Flat
 70
     0
 71
     2
 72
     1
 73
     1
 90
        2
 40
-0.6
 41
30.0
 62
     5
 63
     7
 74
     0
 91
        4
 64
     7
 65
   257
 75
     1
175
     1
 42
1.0
 92
        8
 66
     7
 43
1.0
 76
     1
 77
     6
 78
     2
 67
     7
 79
     5
170
     0
171
     0
290
     0
174
     0
 93
       13
 44
0.0
173
     0
291
     1
 45
0.0
1001
ACAD
1000
AcDbSavedByObjectVersion
1070
     0
  0
VISUALSTYLE
  5
16
102
{ACAD_REACTORS
330
14
102
}
330
14
100
AcDbVisualStyle
  2
FlatWithEdges
 70
     1
 71
     2
 72
     1
 73
     1
 90
        2
 40
-0.6
 41
30.0
 62
     5
 63
     7
 74
     1
 91
        4
 64
     7
 65
   257
 75
     1
175
     1
 42
1.0
 92
        0
 66
   257
 43
1.0
 76
     1
 77
     6
 78
     2
 67
     7
 79
     5
170
     0
171
     0
290
     0
174
     0
 93
       13
 44
0.0
173
     0
291
     1
 45
0.0
1001
ACAD
1000
AcDbSavedByObjectVersion
1070
     0
  0
VISUALSTYLE
  5
17
102
{ACAD_REACTORS
330
14
102
}
330
14
100
AcDbVisualStyle
  2
Gouraud
 70
     2
 71
     2
 72
     2
 73
     1
 90
        2
 40
-0.6
 41
30.0
 62
     5
 63
     7
 74
     0
 91
        4
 64
     7
 65
   257
 75
     1
175
     1
 42
1.0
 92
        0
 66
     7
 43
1.0
 76
     1
 77
     6
 78
     2
 67
     7
 79
     5
170
     0
171
     0
290
     0
174
     0
 93
       13
 44
0.0
173
     0
291
     1
 45
0.0
1001
ACAD
1000
AcDbSavedByObjectVersion
1070
     0
  0
VISUALSTYLE
  5
18
102
{ACAD_REACTORS
330
14
102
}
330
14
100
AcDbVisualStyle
  2
GouraudWithEdges
 70
     3
 71
     2
 72
     2
 73
     1
 90
        2
 40
-0.6
 41
30.0
 62
     5
 63
     7
 74
     1
 91
        4
 64
     7
 65
   257
 75
     1
175
     1
 42
1.0
 92
        0
 66
   257
 43
1.0
 76
     1
 77
     6
 78
     2
 67
     7
 79
     5
170
     0
171
     0
290
     0
174
     0
 93
       13
 44
0.0
173
     0
291
     1
 45
0.0
1001
ACAD
1000
AcDbSavedByObjectVersion
1070
     0
  0
VISUALSTYLE
  5
22
102
{ACAD_REACTORS
330
14
102
}
330
14
100
AcDbVisualStyle
  2
Linepattern
 70
    14
 71
     2
 72
     2
 73
     0
 90
        0
 40
-0.6
 41
-30.0
 62
     5
 63
     7
 74
     1
 91
        4
 64
     7
 65
   257
 75
     7
175
     7
 42
1.0
 92
        8
 66
     7
 43
1.0
 76
     1
 77
     6
 78
     2
 67
     7
 79
     5
170
     0
171
     0
290
     0
174
     0
 93
        1
 44
0.0
173
     0
291
     1
 45
0.0
1001
ACAD
1000
AcDbSavedByObjectVersion
1070
     0
  0
VISUALSTYLE
  5
1E
102
{ACAD_REACTORS
330
14
102
}
330
14
100
AcDbVisualStyle
  2
Realistic
 70
     8
 71
     2
 72
     2
 73
     0
 90
        0
 40
-0.6
 41
-30.0
 62
     5
 63
     7
 74
     1
 91
        0
 64
     7
 65
   257
 75
     1
175
     1
 42
1.0
 92
        8
 66
     8
 43
1.0
 76
     1
 77
     6
 78
     2
 67
     7
 79
     5
170
     0
171
     0
290
     0
174
     0
 93
       13
 44
0.0
173
     0
291
     0
 45
0.0
1001
ACAD
1000
AcDbSavedByObjectVersion
1070
     0
  0
VISUALSTYLE
  5
21
102
{ACAD_REACTORS
330
14
102
}
330
14
100
AcDbVisualStyle
  2
Thicken
 70
    13
 71
     2
 72
     2
 73
     0
 90
        0
 40
-0.6
 41
-30.0
 62
     5
 63
     7
 74
     1
 91
        4
 64
     7
 65
   257
 75
     1
175
     1
 42
1.0
 92
       12
 66
     7
 43
1.0
 76
     1
 77
     6
 78
     2
 67
     7
 79
     5
170
     0
171
     0
290
     0
174
     0
 93
        1
 44
0.0
173
     0
291
     1
 45
0.0
1001
ACAD
1000
AcDbSavedByObjectVersion
1070
     0
  0
DICTIONARYVAR
  5
EBE
102
{ACAD_REACTORS
330
EBD
102
}
330
EBD
100
DictionaryVariables
280
     0
  1
STANDARD
  0
DICTIONARYVAR
  5
EC2
102
{ACAD_REACTORS
330
EBD
102
}
330
EBD
100
DictionaryVariables
280
     0
  1
1
  0
DICTIONARYVAR
  5
EC1
102
{ACAD_REACTORS
330
EBD
102
}
330
EBD
100
DictionaryVariables
280
     0
  1
1
  0
DICTIONARYVAR
  5
EC0
102
{ACAD_REACTORS
330
EBD
102
}
330
EBD
100
DictionaryVariables
280
     0
  1
0
  0
DICTIONARYVAR
  5
EBF
102
{ACAD_REACTORS
330
EBD
102
}
330
EBD
100
DictionaryVariables
280
     0
  1
127
  0
DICTIONARY
  5
ECC
330
36
100
AcDbDictionary
280
     1
281
     1
  3
ACAD_XREC_ROUNDTRIP
360
ECD
  0
DICTIONARY
  5
ED0
330
3E
100
AcDbDictionary
280
     1
281
     1
  3
ACAD_XREC_ROUNDTRIP
360
ED1
  0
DICTIONARY
  5
ECE
330
3A
100
AcDbDictionary
280
     1
281
     1
  3
ACAD_XREC_ROUNDTRIP
360
ECF
  0
DICTIONARY
  5
EC6
330
12
100
AcDbDictionary
280
     1
281
     1
  3
ACAD_XREC_ROUNDTRIP
360
EC7
  0
DICTIONARY
  5
EC4
330
11
100
AcDbDictionary
280
     1
281
     1
  3
ACAD_XREC_ROUNDTRIP
360
EC5
  0
DICTIONARY
  5
EC8
330
13
100
AcDbDictionary
280
     1
281
     1
  3
ACAD_XREC_ROUNDTRIP
360
EC9
  0
DICTIONARY
  5
ECA
330
32
100
AcDbDictionary
280
     1
281
     1
  3
ACAD_XREC_ROUNDTRIP
360
ECB
  0
XRECORD
  5
ECD
102
{ACAD_REACTORS
330
ECC
102
}
330
ECC
100
AcDbXrecord
280
     1
102
SHADEPLOT
 70
     0
102
SHADEPLOTRESLEVEL
 70
     2
102
SHADEPLOTCUSTOMDPI
 70
   300
  0
XRECORD
  5
ED1
102
{ACAD_REACTORS
330
ED0
102
}
330
ED0
100
AcDbXrecord
280
     1
102
SHADEPLOT
 70
     0
102
SHADEPLOTRESLEVEL
 70
     2
102
SHADEPLOTCUSTOMDPI
 70
   300
  0
XRECORD
  5
ECF
102
{ACAD_REACTORS
330
ECE
102
}
330
ECE
100
AcDbXrecord
280
     1
102
SHADEPLOT
 70
     0
102
SHADEPLOTRESLEVEL
 70
     2
102
SHADEPLOTCUSTOMDPI
 70
   300
  0
XRECORD
  5
EC7
102
{ACAD_REACTORS
330
EC6
102
}
330
EC6
100
AcDbXrecord
280
     1
102
MATERIAL
148
0.0
149
0.0
149
0.0
 93
        0
 94
       63
282
     0
 72
     1
 77
     1
171
     1
175
     1
179
     1
273
     0
  0
XRECORD
  5
EC5
102
{ACAD_REACTORS
330
EC4
102
}
330
EC4
100
AcDbXrecord
280
     1
102
MATERIAL
148
0.0
149
0.0
149
0.0
 93
        0
 94
       63
282
     0
 72
     1
 77
     1
171
     1
175
     1
179
     1
273
     0
  0
XRECORD
  5
EC9
102
{ACAD_REACTORS
330
EC8
102
}
330
EC8
100
AcDbXrecord
280
     1
102
MATERIAL
148
0.0
149
0.0
149
0.0
 93
        0
 94
       63
282
     0
 72
     1
 77
     1
171
     1
175
     1
179
     1
273
     0
  0
XRECORD
  5
ECB
102
{ACAD_REACTORS
330
ECA
102
}
330
ECA
100
AcDbXrecord
280
     1
102
ACAD_ROUNDTRIP_PRE2007_TABLESTYLE
 90
      512
 91
        0
  1

 92
      512
 93
        0
  2

 94
      512
 95
        0
  3

  0
ENDSEC
  0
EOF
